<?xml version="1.0" standalone="no"?>
<!DOCTYPE svg PUBLIC "-//W3C//DTD SVG 1.1//EN" "../../../../../www.w3.org/Graphics/SVG/1.1/DTD/svg11.dtd" >
<svg xmlns="http://www.w3.org/2000/svg">
<metadata></metadata>
<defs>
<font id="FontAwesomeRegular" horiz-adv-x="1843" >
<font-face units-per-em="2048" ascent="1536" descent="-512" />
<missing-glyph horiz-adv-x="512" />
<glyph horiz-adv-x="0" />
<glyph horiz-adv-x="0" />
<glyph unicode="&#xd;" horiz-adv-x="512" />
<glyph unicode=" "  horiz-adv-x="512" />
<glyph unicode="&#x09;" horiz-adv-x="512" />
<glyph unicode="&#xa0;" horiz-adv-x="512" />
<glyph unicode="o" horiz-adv-x="1591" />
<glyph unicode="&#xa8;" horiz-adv-x="2048" />
<glyph unicode="&#xa9;" horiz-adv-x="2048" />
<glyph unicode="&#xae;" horiz-adv-x="2048" />
<glyph unicode="&#xb4;" horiz-adv-x="2048" />
<glyph unicode="&#xc6;" horiz-adv-x="2048" />
<glyph unicode="&#xcd;" horiz-adv-x="2048" />
<glyph unicode="&#x2000;" horiz-adv-x="784" />
<glyph unicode="&#x2001;" horiz-adv-x="1569" />
<glyph unicode="&#x2002;" horiz-adv-x="784" />
<glyph unicode="&#x2003;" horiz-adv-x="1569" />
<glyph unicode="&#x2004;" horiz-adv-x="523" />
<glyph unicode="&#x2005;" horiz-adv-x="392" />
<glyph unicode="&#x2006;" horiz-adv-x="261" />
<glyph unicode="&#x2007;" horiz-adv-x="261" />
<glyph unicode="&#x2008;" horiz-adv-x="196" />
<glyph unicode="&#x2009;" horiz-adv-x="313" />
<glyph unicode="&#x200a;" horiz-adv-x="87" />
<glyph unicode="&#x202f;" horiz-adv-x="313" />
<glyph unicode="&#x203a;" horiz-adv-x="2048" />
<glyph unicode="&#x205f;" horiz-adv-x="392" />
<glyph unicode="&#x2122;" horiz-adv-x="2048" />
<glyph unicode="&#x221e;" horiz-adv-x="2048" />
<glyph unicode="&#xe000;" horiz-adv-x="1024" d="M0 0z" />
<glyph unicode="&#xf000;" horiz-adv-x="1536" d="M6 1489q20 47 70 47h1382q51 0 72 -47q20 -47 -17 -84l-610 -610v-641h248q33 0 55.5 -22.5t22.5 -53.5q0 -33 -22.5 -55.5t-55.5 -22.5h-768q-31 0 -53.5 22.5t-22.5 55.5q0 31 22.5 53.5t53.5 22.5h250v641l-610 610q-37 37 -17 84z" />
<glyph unicode="&#xf001;" horiz-adv-x="1488" d="M0 213q0 57 27.5 103t72.5 77t98.5 47.5t106.5 16.5q25 0 50.5 -4t50.5 -11v779q0 27 16 48t43 29q23 6 9900A98C0A53" />
<glyph unicode="&#xf002;" horiz-adv-x="1597" d="M0 901q0 137 52 258t143.5 212t212 143.5t258.5 52.5q137 0 257.5 -52.5t212 -143.5t143.5 -212t52 -258q0071DC08A33" />
<glyph unicode="&#xf003;" d="M0 115v1306q0 47 34 81t81 34h1614q47 0 80.5 -34t33.5 -81v-1306q0 -47 -33.5 -81t-80.5 -34h-1614q-47 0 -81 34t-34 81zM154 154h1536v852q-31 -31 -58 -50q-106 -80 -212.5 -159.5t-211.5 -163.5q-61 -49 -131.5 -94t-156.5 -45q-82 0 -153 45t-132 94 q-104 84 -211 164t-213 159q-27 18 -57 50v-852zM154 1317q0 -31 14 -65.5t35.5 -66.5t47 -59.5t50.5 -46.5q100 -76 199.5 -150.5t199.5 -152.5q20 -16 48 -37.5t58 -42t59.5 -35t54.5 -14.5h2h2q25 0 54.5 14.5t59 35t57 42t48.5 37.5q100 78 199.5 153t199.5 150 q25 18 50.5 46t47 60t36 66.5t14.5 65.5v65h-1536v-65z" />
<glyph unicode="&#xf004;" horiz-adv-x="1802" d="M0 1073q0 113 34 205t97.5 155.5t153.5 98.5t202 35q59 0 117 -18.5t110 -48.5t99 -68.5t88 -77.5q39 39 80FC048EAA3" />
<glyph unicode="&#xf005;" horiz-adv-x="1675" d="M1 959.5q9 27.5 54 33.5l506 74l227 459q20 41 49 41t50 -41l227 -459l506 -74q45 -6 54 -33.5t-23 -60.5l0651BB7A6D" />
<glyph unicode="&#xf006;" horiz-adv-x="1675" d="M0 948q0 23 18.5 32t36.5 13l506 74l227 459q6 14 20 27.5t30 13.5q18 0 30.5 -13.5t18.5 -27.5l227 -459l506 -74q18 -4 36.5 -13t18.5 -32q0 -14 -7 -26.5t-17 -22.5l-367 -356l86 -504q0 -4 1 -9t1 -12q0 -20 -9 -34.5t-32 -14.5t-41 13l-452 237l-453 -237 q-18 -12 -39 -13q-23 0 -33 14.5t-10 34.5q0 6 1 11.5t1 9.5l86 504l-364 356q-10 10 -18.5 22.5t-8.5 26.5zM289 866l274 -268l-65 -377l340 178l340 -178l-66 377l274 268l-378 56l-170 344l-170 -344z" />
<glyph unicode="&#xf007;" horiz-adv-x="1566" d="M0 57v387q0 37 18.5 82t48 86t65.5 74t71 43q18 6 66 13.5t102.5 14.5t104.5 13t77 10q-92 59 -144.5 153.0643F5AA39" />
<glyph unicode="&#xf008;" d="M0 115v1306q0 47 34 81t81 34h1614q47 0 80.5 -34t33.5 -81v-1306q0 -47 -33.5 -81t-80.5 -34h-1614q-47 0 -81 34t-34 81zM115 154q0 -16 11 -27.5t28 -11.5h153q16 0 27.5 11t11.5 28v153q0 16 -11 27.5t-28 11.5h-153q-16 0 -27.5 -11t-11.5 -28v-153zM115 512 q0 -16 11 -27.5t28 -11.5h153q16 0 27.5 11.5t11.5 27.5v154q0 16 -11 27.5t-28 11.5h-153q-16 0 -27.5 -11.5t-11.5 -27.5v-154zM115 870q0 -16 11 -27.5t28 -11.5h153q16 0 27.5 11.5t11.5 27.5v154q0 16 -11 27.5t-28 11.5h-153q-16 0 -27.5 -11.5t-11.5 -27.5v-154z M115 1229q0 -16 11 -27.5t28 -11.5h153q16 0 27.5 11t11.5 28v153q0 16 -11 27.5t-28 11.5h-153q-16 0 -27.5 -11t-11.5 -28v-153zM461 154q0 -16 11 -27.5t28 -11.5h843q16 0 27.5 11t11.5 28v512q0 16 -11 27.5t-28 11.5h-843q-16 0 -27.5 -11.5t-11.5 -27.5v-512z M461 870q0 -16 11 -27.5t28 -11.5h843q16 0 27.5 11.5t11.5 27.5v512q0 16 -11 27.5t-28 11.5h-843q-16 0 -27.5 -11t-11.5 -28v-512zM1497 154q0 -16 11.5 -27.5t27.5 -11.5h154q16 0 27.5 11t11.5 28v153q0 16 -11.5 27.5t-27.5 11.5h-154q-16 0 -27.5 -11t-11.5 -28v-153 zM1497 512q0 -16 11.5 -27.5t27.5 -11.5h154q16 0 27.5 11.5t11.5 27.5v154q0 16 -11.5 27.5t-27.5 11.5h-154q-16 0 -27.5 -11.5t-11.5 -27.5v-154zM1497 870q0 -16 11.5 -27.5t27.5 -11.5h154q16 0 27.5 11.5t11.5 27.5v154q0 16 -11.5 27.5t-27.5 11.5h-154 q-16 0 -27.5 -11.5t-11.5 -27.5v-154zM1497 1229q0 -16 11.5 -27.5t27.5 -11.5h154q16 0 27.5 11t11.5 28v153q0 16 -11.5 27.5t-27.5 11.5h-154q-16 0 -27.5 -11t-11.5 -28v-153z" />
<glyph unicode="&#xf009;" d="M0 78v536q0 33 22.5 55.5t55.5 22.5h690q33 0 55.5 -22.5t22.5 -55.5v-536q0 -33 -22.5 -55.5t-55.5 -22.502612F8A5E" />
<glyph unicode="&#xf00a;" d="M0 78v270q0 33 22.5 54.5t55.5 21.5h358q31 0 53.5 -21.5t22.5 -54.5v-270q0 -33 -22.5 -55.5t-53.5 -22.5014CA80A56" />
<glyph unicode="&#xf00b;" d="M0 78v270q0 33 22.5 54.5t55.5 21.5h297q31 0 53.5 -21.5t22.5 -54.5v-270q0 -33 -22.5 -55.5t-53.5 -22.5033AC0FA63" />
<glyph unicode="&#xf00c;" d="M0 732.5q0 33.5 23 55.5l174 175q23 23 56.5 22.5t55.5 -22.5l365 -365q23 -23 56.5 -23t55.5 23l746 745q0909496ABC" />
<glyph unicode="&#xf00d;" horiz-adv-x="1536" d="M0 192.5q0 38.5 29 67.5l508 510l-508 500q-29 29 -29 67.5t29 67.5l100 100q29 29 68 29t67 -29l504 -5040DD00CDA9D" />
<glyph unicode="&#xf00e;" horiz-adv-x="1597" d="M0 901q0 137 52 258t143.5 212t212 143.5t258.5 52.5q137 0 259 -52.5t212 -143.5t142 -212t52 -258q0 -10086F65FA07" />
<glyph unicode="&#xf010;" horiz-adv-x="1597" d="M0 901q0 137 52 258t143.5 212t212 143.5t258.5 52.5q137 0 259 -52.5t212 -143.5t142 -212t52 -258q0 -100220784A12" />
<glyph unicode="&#xf011;" horiz-adv-x="1488" d="M0 713q0 186 86 349t240 267q12 10 28 6q18 -4 25 -16l90 -131q10 -12 6 -27.5t-16 -25.5q-106 -72 -164.50B14277AE1" />
<glyph unicode="&#xf012;" d="M0 39v260q0 16 11.5 27.5t27.5 11.5h192q16 0 26.5 -11.5t10.5 -27.5v-260q0 -16 -10 -27.5t-27 -11.5h-192q-39 0 -39 39zM393 39v434q0 16 11.5 27.5t27.5 11.5h193q16 0 26.5 -11.5t10.5 -27.5v-434q0 -16 -10.5 -27.5t-26.5 -11.5h-193q-16 0 -27.5 11.5t-11.5 27.5z M786 39v676q0 16 11.5 27.5t27.5 11.5h193q16 0 27.5 -11.5t11.5 -27.5v-676q0 -16 -11.5 -27.5t-27.5 -11.5h-193q-16 0 -27.5 11.5t-11.5 27.5zM1182 39v995q0 16 10 27.5t27 11.5h192q16 0 27.5 -11t11.5 -28v-995q0 -16 -11.5 -27.5t-27.5 -11.5h-192q-16 0 -26.5 11.5 t-10.5 27.5zM1575 39v1458q0 39 39 39h190q39 0 39 -39v-1458q0 -39 -39 -39h-190q-39 0 -39 39z" />
<glyph unicode="&#xf013;" horiz-adv-x="1593" d="M0 651v236q0 12 30.5 21.5t68.5 15.5t74 9t48 5q18 61 49 117q-55 82 -120 157l-7 15q0 8 28 38.5t62.5 65.5t66.5 62.5t40 27.5q2 0 26.5 -18.5t54.5 -41t56.5 -43t32.5 -24.5q29 16 58.5 26.5t60.5 20.5q0 12 3 49t9 75t15.5 69t21.5 31h237q14 0 19 -15 q12 -49 17 -103t14 -106q31 -8 59.5 -19t56.5 -28q8 6 34 26.5t55.5 43t53 40t29.5 17.5t37 -27.5t65 -62.5t61.5 -65.5t27.5 -38.5q0 -4 -17.5 -28.5t-39 -53.5t-42 -55.5t-24.5 -32.5q33 -55 51 -123q49 -10 103.5 -13t101.5 -20q16 -4 16 -18v-236q0 -12 -29.5 -21.5 t-68.5 -15.5t-76 -9t-49 -5q-14 -57 -47 -117q55 -82 121 -157l6 -15q0 -8 -27.5 -38.5t-62.5 -65.5t-66.5 -62.5t-40.5 -27.5q-2 0 -26.5 18.5t-54 41t-56 43t-33.5 24.5q-29 -16 -58.5 -27.5t-59.5 -19.5q-2 -12 -5.5 -49.5t-9.5 -76t-14 -69.5t-21 -31h-237q-14 0 -19 17 q-14 49 -19 103t-11 103q-61 18 -117 50q-41 -31 -81 -60.5t-79 -62.5l-12 -4q-6 0 -37 27.5t-64.5 62.5t-61 65.5t-27.5 38.5q0 2 16 26.5t37.5 53.5t42 55.5t26.5 34.5q-33 55 -51 123q-51 10 -104.5 13t-100.5 20q-16 4 -16 18zM557 768q0 -49 18.5 -93t51 -77t77 -52.5 t93.5 -19.5t93 19.5t75.5 52.5t51 77t19.5 93t-19.5 92t-51 76t-75.5 51.5t-93 18.5t-93.5 -18.5t-77 -51.5t-51 -76t-18.5 -92z" />
<glyph unicode="&#xf014;" horiz-adv-x="1304" d="M0 1175.5v34.5v36t2 36q25 14 71 23.5t98 15.5t102.5 9t78.5 5q-8 82 11.5 128t59.5 68.5t98.5 29t131.5 6.5q55 0 109.5 -3t97.5 -20.5t68.5 -54.5t25.5 -105v-24t-2 -25q29 -2 79 -5t102.5 -9t99.5 -15.5t72 -23.5v-72v-69q-37 -20 -123 -32.5t-185.5 -19t-193.5 -7.5 t-150 -1q-55 0 -150 1t-194.5 7.5t-184.5 18.5t-122 33q-2 16 -2 34.5zM133 154v837q123 -16 244 -21t244 -5h32q129 2 258 6t258 20v-837q0 -63 -44 -108.5t-107 -45.5h-731q-63 0 -108.5 45t-45.5 109zM303 199q0 -16 10.5 -26.5t26.5 -10.5h39q16 0 27.5 10t11.5 27v614 q0 16 -11.5 27.5t-27.5 11.5h-39q-16 0 -26.5 -11.5t-10.5 -27.5v-614zM504 1384q0 -10 1 -22t3 -23q144 2 291 0q0 12 2 23.5t0 21.5v15q-35 10 -74 11t-74 1q-37 0 -75.5 -1t-73.5 -11v-15zM596 199q0 -16 10 -26.5t27 -10.5h39q16 0 27.5 10t11.5 27v614q0 16 -11.5 27.5 t-27.5 11.5h-39q-16 0 -26.5 -11.5t-10.5 -27.5v-614zM887 199q0 -16 11 -26.5t28 -10.5h39q16 0 27.5 10t11.5 27v614q0 16 -11.5 27.5t-27.5 11.5h-39q-16 0 -27.5 -11.5t-11.5 -27.5v-614z" />
<glyph unicode="&#xf015;" horiz-adv-x="1880" d="M0 809.5q2 15.5 14 26.5l867 710q27 20 59 21q33 0 59 -21l240 -196v102q0 16 11.5 27.5t27.5 11.5h223q1609A4C2DAAB" />
<glyph unicode="&#xf016;" horiz-adv-x="1228" d="M0 78v1382q0 31 22.5 53.5t55.5 22.5h614q33 0 71 -16.5t60 -38.5l351 -351q23 -23 39 -60.5t16 -70.5v-921q0 -33 -22.5 -55.5t-53.5 -22.5h-1075q-33 0 -55.5 22.5t-22.5 55.5zM154 154h921v692h-459q-31 0 -53 22.5t-22 55.5v458h-387v-1228zM268 326v116h693v-116 h-693zM268 596v115h693v-115h-693zM694 999h381q0 4 -4 13.5t-6 11.5l-350 348q-2 4 -9.5 6t-11.5 4v-383z" />
<glyph unicode="&#xf017;" horiz-adv-x="1597" d="M0 768q0 166 62.5 311.5t171 254t254 171t311.5 62.5t311 -62.5t254 -171t171 -254t62 -311.5t-62 -311.5t0EC81CEA3D" />
<glyph unicode="&#xf018;" d="M2 35l594 1466q6 14 21.5 24.5t31.5 10.5h195l-8 -170h172l-9 170h195q16 0 31.5 -10t21.5 -25l594 -1466q6 -14 -1 -24.5t-23 -10.5h-740l-26 512h-258l-27 -512h-739q-16 0 -23.5 10t-1.5 25zM807 797h229l-20 413h-189z" />
<glyph unicode="&#xf019;" d="M0 39v614q0 16 11.5 27.5t27.5 11.5h229q16 0 27.5 -11t11.5 -28v-346h1229v346q0 16 11.5 27.5t27.5 11.500E2430AF4" />
<glyph unicode="&#xf01a;" horiz-adv-x="1597" d="M0 768q0 166 62.5 311.5t171 254t254 171t311.5 62.5t311 -62.5t254 -171t171 -254t62 -311.5t-62 -311.5t-171 -254t-254 -171t-311 -62.5t-311.5 62.5t-254 171t-171 254t-62.5 311.5zM240 768q0 -117 44 -218t119.5 -177t177 -120t218.5 -44t218 44t177 120t120 177 t44 218t-44 218t-120 177t-177.5 120t-217.5 44q-117 0 -218.5 -44t-177 -120t-119.5 -177t-44 -218zM414 743q10 25 37 25h208v358q0 16 11.5 28.5t27.5 12.5h201q16 0 27.5 -12t11.5 -29v-358h209q27 0 37 -25t-10 -43l-347 -346q-14 -10 -28 -10t-29 10l-346 346 q-20 18 -10 43z" />
<glyph unicode="&#xf01b;" horiz-adv-x="1597" d="M0 768q0 166 62.5 311.5t171 254t254 171t311.5 62.5t311 -62.5t254 -171t171 -254t62 -311.5t-62 -311.5t-171 -254t-254 -171t-311 -62.5t-311.5 62.5t-254 171t-171 254t-62.5 311.5zM240 768q0 -117 44 -218t119.5 -177t177 -120t218.5 -44t218 44t177 120t120 177 t44 218t-44 218t-120 177t-177 120t-218 44t-218.5 -44t-177 -120t-119.5 -177t-44 -218zM414 793q-10 25 10 43l346 346q14 10 29 10q14 0 28 -10l347 -346q20 -18 10 -43t-37 -25h-209v-360q0 -16 -11.5 -27.5t-27.5 -11.5h-201q-16 0 -27.5 11t-11.5 28v360h-208 q-27 0 -37 25z" />
<glyph unicode="&#xf01c;" d="M0 78v577q0 33 9 76t22 72l284 663q12 29 44 49.5t63 20.5h999q31 0 63 -20.5t44 -49.5l284 -663q12 -29 2065EA0DAC3" />
<glyph unicode="&#xf01d;" horiz-adv-x="1597" d="M0 768q0 166 62.5 311.5t171 254t254 171t311.5 62.5t311 -62.5t254 -171t171 -254t62 -311.5t-62 -311.5t-171 -254t-254 -171t-311 -62.5t-311.5 62.5t-254 171t-171 254t-62.5 311.5zM240 768q0 -117 44 -218t119.5 -177t177 -120t218.5 -44t218 44t177 120t120 177 t44 218t-44 218t-120 177t-177.5 120t-217.5 44q-117 0 -218.5 -44t-177 -120t-119.5 -177t-44 -218zM582 453v628q0 18 16 29q20 8 31 0l545 -315q16 -6 16 -27q0 -20 -16 -27l-545 -315q-8 -4 -15 -4q-8 0 -16 4q-16 10 -16 27z" />
<glyph unicode="&#xf01e;" horiz-adv-x="1591" d="M0 768q0 166 62.5 311.5t171 254t254 171t311.5 62.5q141 0 271 -48.5t239 -140.5l161 162q35 35 58.5 24.05DF37AA8A" />
<glyph unicode="&#xf021;" horiz-adv-x="1916" d="M6 311l150 437q10 33 39 45t59 4l438 -150q45 -16 46 -40.5t-42 -47.5l-202 -100q53 -78 123.5 -134.5t1600F10E45ABC" />
<glyph unicode="&#xf022;" d="M0 115v1306q0 47 34 81t81 34h1614q47 0 80.5 -34t33.5 -81v-1306q0 -47 -33.5 -81t-80.5 -34h-1614q-47 000A2C22A56" />
<glyph unicode="&#xf023;" horiz-adv-x="1253" d="M0 117v626q0 39 21.5 69t56.5 42v164q0 113 43 213t117.5 175t175 118t213.5 43t213 -43t175 -118t118 -1702C0B6BA4C" />
<glyph unicode="&#xf024;" d="M0 1382q0 63 45 108.5t109 45.5q63 0 108 -45.5t45 -108.5q0 -41 -20.5 -74.5t-55.5 -56.5v-1212q0 -16 -10666FDCAF9" />
<glyph unicode="&#xf025;" horiz-adv-x="1916" d="M0 729q0 172 85 324.5t221 266.5t307 180.5t345 66.5t345.5 -66.5t307.5 -180.5t221 -266.5t85 -326.5q0 -182 -78 -350l-27 -60l-174 -26q-27 -104 -110.5 -173t-196.5 -69v-41q0 -16 -12 -27.5t-29 -11.5h-80q-16 0 -27.5 11.5t-11.5 27.5v719q0 16 11.5 28.5 t27.5 12.5h80q16 0 28.5 -12.5t12.5 -28.5v-39q88 0 161 -44t114 -116l39 7q33 90 32 192q0 125 -65.5 233.5t-170 190.5t-232.5 129t-251 47t-250.5 -47t-232 -128t-170 -190.5t-65.5 -232.5q0 -104 32 -194l39 -7q41 72 114 116t161 44v39q0 16 12 28.5t29 12.5h80 q16 0 27 -12.5t11 -28.5v-719q0 -16 -11 -27.5t-27 -11.5h-80q-16 0 -28.5 11.5t-12.5 27.5v41q-55 0 -106.5 18.5t-91.5 50.5t-68.5 76t-40.5 97l-175 26l-26 60q-78 168 -78 352z" />
<glyph unicode="&#xf026;" horiz-adv-x="905" d="M0 578v380q0 16 11.5 27.5t27.5 11.5h420l325 326q49 51 84 37t35 -86v-1012q0 -72 -34.5 -86t-84.5 37l-325 326h-420q-16 0 -27.5 11t-11.5 28z" />
<glyph unicode="&#xf027;" horiz-adv-x="1277" d="M0 578v380q0 16 11.5 27.5t27.5 11.5h420l325 326q49 51 84 37t35 -86v-1012q0 -72 -34.5 -86t-84.5 37l-325 326h-420q-16 0 -27.5 11t-11.5 28zM1027 406q-9 32 7 61q84 145 84 301t-84 301q-16 29 -7 61t38 48t60.5 8t48.5 -37q104 -182 104 -381q0 -201 -104 -381 q-23 -41 -70 -41q-20 0 -39 12q-29 16 -38 48z" />
<glyph unicode="&#xf028;" horiz-adv-x="1916" d="M0 578v380q0 16 11.5 27.5t27.5 11.5h420l325 326q49 51 84 37t35 -86v-1012q0 -72 -34.5 -86t-84.5 37l-325 326h-420q-16 0 -27.5 11t-11.5 28zM1027 406q-9 32 7 61q84 145 84 301t-84 301q-16 29 -7 61t38 48t60.5 8t48.5 -37q104 -182 104 -381q0 -201 -104 -381 q-23 -41 -70 -41q-20 0 -39 12q-29 16 -38 48zM1285 219q-7 33 11 62q141 225 142 487q0 262 -142 487q-18 29 -11 62t36 49q29 18 61 11t50 -36q82 -131 123.5 -275t41.5 -298q0 -309 -167 -573q-10 -18 -29 -27.5t-37 -9.5q-25 0 -43 12q-29 16 -36 49zM1540 33 q-6 33 12 59q100 154 152.5 325t52.5 351t-52 351t-153 323q-18 29 -12 61.5t35 50.5q29 16 61 10.5t50 -32.5q115 -174 173 -366.5t58 -397.5t-58.5 -397.5t-172.5 -364.5q-10 -18 -29 -27.5t-37 -9.5q-25 0 -45 13q-29 18 -35 51z" />
<glyph unicode="&#xf029;" horiz-adv-x="1536" d="M0 0v698h698v-698h-698zM0 838v698h698v-698h-698zM139 139h420v420h-420v-420zM139 977h420v420h-420v-420zM279 279v141h141v-141h-141zM279 1116v139h141v-139h-141zM838 0v698h417v-139h142v139h139v-419h-420v139h-139v-418h-139zM838 838v698h698v-698h-698z M977 977h420v420h-420v-420zM1116 0v139h139v-139h-139zM1116 1116v139h139v-139h-139zM1397 0v139h139v-139h-139z" />
<glyph unicode="&#xf02a;" d="M0 0v1536h154v-1536h-154zM227 0v1536h37v-1536h-37zM356 0v1536h117v-1536h-117zM545 0v1536h78v-1536h-78zM715 0v1536h76v-1536h-76zM903 0v1536h37v-1536h-37zM1014 0v1536h153v-1536h-153zM1221 0v1536h77v-1536h-77zM1409 0v1536h39v-1536h-39zM1579 0v1536h37 v-1536h-37zM1690 0v1536h153v-1536h-153z" />
<glyph unicode="&#xf02b;" horiz-adv-x="1488" d="M0 961v454q0 49 35 85t86 36h454q51 0 113 -24.5t94 -61.5l672 -748q33 -39 34 -88t-34 -84l-526 -526q-350EF5C2AA9C" />
<glyph unicode="&#xf02c;" horiz-adv-x="1875" d="M0 961v454q0 49 35 85t86 36h454q25 0 53.5 -6t57.5 -18.5t54.5 -28t41.5 -33.5l670 -748q33 -37 34 -86t-0D5508AA49" />
<glyph unicode="&#xf02d;" horiz-adv-x="1710" d="M10 311q2 16 4 31.5t4 34.5q0 10 -4 20.5t-2 20.5q2 16 15.5 31.5t25.5 35.5q23 37 45.5 90.5t32.5 92.5q40B98D95A13" />
<glyph unicode="&#xf02e;" horiz-adv-x="1253" d="M0 84v1337q0 47 34 81t81 34h1024q47 0 80.5 -34t33.5 -81v-1337q0 -47 -33.5 -81t-80.5 -34t-80 33l-432 432l-432 -432q-33 -33 -80 -33t-81 34t-34 81z" />
<glyph unicode="&#xf02f;" d="M0 39v346q0 47 18.5 89t50 73t73.5 49t89 18h1383q47 0 89 -18t72.5 -49t49 -73t18.5 -89v-346q0 -39 -39 -39h-1765q-39 0 -39 39zM268 193q0 -16 11.5 -26.5t27.5 -10.5h1229q16 0 27.5 10t11.5 27v38q0 16 -11.5 27.5t-27.5 11.5h-1229q-16 0 -27.5 -11t-11.5 -28v-38 zM307 729v731q0 31 22.5 53.5t55.5 22.5h651v-383q0 -49 34 -83t81 -34h385v-307h-1229zM1151 1153v383l385 -383h-385z" />
<glyph unicode="&#xf030;" d="M0 115v1075q0 47 34 82t81 35h366l58 125q18 43 66 73.5t95 30.5h443q47 0 95 -30.5t67 -73.5l57 -125h3670586321A0F" />
<glyph unicode="&#xf031;" horiz-adv-x="1644" d="M0 0l2 80q10 4 29.5 8t48.5 8q92 18 108 33q16 10 50 68l233 614l277 725h73h53l11 -20l202 -482q33 -78 605EE0FDA15" />
<glyph unicode="&#xf032;" horiz-adv-x="1419" d="M0 0l2 94q27 6 68 12q39 6 69.5 13.5t55.5 17.5q8 14 13 26.5t7 24.5q6 33 8 81t2 112l-2 498q-2 39 -3 139t-5 266q-4 88 -12 109q-4 8 -13 10q-20 14 -69 16q-23 0 -115 13l-4 84l262 6l383 12h45q8 2 15.5 2h13.5t21.5 -1t39.5 -1h76q92 0 193 -27q18 -4 42.5 -13 t53.5 -26q63 -31 104 -75q45 -47 66 -105q10 -29 15 -58.5t5 -62.5q0 -72 -32 -129q-31 -57 -95 -104q-16 -12 -54 -30.5t-97 -47.5q178 -41 268 -145q92 -104 92 -236q0 -72 -28 -162q-23 -66 -72 -116q-66 -72 -141 -109q-78 -35 -205 -59q-70 -12 -199 -11l-199 5 q-63 2 -138 -2.5t-163 -10.5q-25 -2 -93 -4t-181 -6zM537 1419q0 -12 1 -31.5t3 -44.5q2 -51 4 -119.5t0 -158.5v-98v-78q25 -4 52.5 -6t57.5 -2q176 0 267 65q90 66 90 225q0 113 -86 187q-84 76 -258 76q-53 0 -131 -15zM545 457l4 -271q0 -16 10 -43q74 -33 141 -32 q131 0 220 41q82 39 122 112q18 37 28.5 82t10.5 100q0 113 -43 181q-59 94 -141 125q-80 33 -250 32q-37 0 -61.5 -3t-40.5 -7v-143v-174z" />
<glyph unicode="&#xf033;" horiz-adv-x="1054" d="M0 0l18 84q12 4 32 9t46 11q41 10 71 19.5t50 19.5q29 39 41 103l29 137l57 268l12 64q23 119 41.5 178t1806551BEAD8" />
<glyph unicode="&#xf034;" d="M0 1151q14 37 34.5 110.5t45.5 184.5q8 33 13 54.5t9 31.5h58q4 -6 6 -10t4 -9q29 -57 41 -71q16 -4 129 -0652D59A1D" />
<glyph unicode="&#xf035;" horiz-adv-x="1536" d="M0 233q0 18 12 31l187 185q18 20 31.5 14t13.5 -33v-121h1048v121q0 27 13.5 33t33.5 -14l185 -185q12 -120BE4F34A0D" />
<glyph unicode="&#xf036;" d="M0 78v115q0 31 22.5 53t55.5 22h1689q31 0 53.5 -22.5t22.5 -52.5v-115q0 -33 -22.5 -55.5t-53.5 -22.5h-108DF2A4AEA" />
<glyph unicode="&#xf037;" d="M0 78v115q0 31 22.5 53t55.5 22h1689q31 0 53.5 -22.5t22.5 -52.5v-115q0 -33 -22.5 -55.5t-53.5 -22.5h-1066567CA40" />
<glyph unicode="&#xf038;" d="M0 78v115q0 31 22.5 53t55.5 22h1689q31 0 53.5 -22.5t22.5 -52.5v-115q0 -33 -22.5 -55.5t-53.5 -22.5h-1002F151A6D" />
<glyph unicode="&#xf039;" d="M0 78v115q0 31 22.5 53t55.5 22h1689q31 0 53.5 -22.5t22.5 -52.5v-115q0 -33 -22.5 -55.5t-53.5 -22.5h-10618350A8A" />
<glyph unicode="&#xf03a;" d="M0 78v115q0 31 22.5 53t55.5 22h153q31 0 53.5 -22.5t22.5 -52.5v-115q0 -33 -22.5 -55.5t-53.5 -22.5h-150206B70AC4" />
<glyph unicode="&#xf03b;" d="M0 756v75q0 39 39 39h213v154q0 31 16.5 37t38.5 -17l215 -215q16 -16 17 -36q0 -18 -17 -35l-215 -215q-204ED705AEE" />
<glyph unicode="&#xf03c;" d="M0 78v115q0 31 22.5 53t53.5 22h768q33 0 55.5 -22.5t22.5 -52.5v-115q0 -33 -22.5 -55.5t-55.5 -22.5h-768q-31 0 -53.5 22.5t-22.5 55.5zM0 500v114q0 33 22.5 55.5t53.5 22.5h614q33 0 55.5 -22.5t22.5 -55.5v-114q0 -33 -22.5 -55.5t-55.5 -22.5h-614 q-31 0 -53.5 22.5t-22.5 55.5zM0 922v114q0 33 22.5 55.5t53.5 22.5h692q31 0 53.5 -22.5t22.5 -55.5v-114q0 -33 -22.5 -54.5t-53.5 -21.5h-692q-31 0 -53.5 21.5t-22.5 54.5zM0 1343v117q0 31 22.5 53.5t53.5 22.5h538q31 0 53.5 -22.5t22.5 -53.5v-117q0 -31 -22.5 -53 t-53.5 -22h-538q-31 0 -53.5 22.5t-22.5 52.5zM1075 39v1458q0 39 39 39h76q16 0 27.5 -11.5t11.5 -27.5v-1458q0 -16 -11.5 -27.5t-27.5 -11.5h-76q-39 0 -39 39zM1305 743q0 16 14 35l217 215q23 23 38 17t15 -39v-152h215q16 0 27.5 -11t11.5 -28v-75q0 -16 -11 -27.5 t-28 -11.5h-215v-154q0 -31 -15 -38t-38 15l-217 218q-14 18 -14 36z" />
<glyph unicode="&#xf03d;" d="M0 324v768q0 47 18.5 89t50 72.5t73.5 49t89 18.5h768q47 0 89 -18.5t73 -49t49.5 -72.5t18.5 -89v-240l4801943D9A39" />
<glyph unicode="&#xf03e;" d="M0 115v1306q0 47 34 81t81 34h1614q47 0 80.5 -34t33.5 -81v-1306q0 -47 -33.5 -81t-80.5 -34h-1614q-47 0 -81 34t-34 81zM154 154h1536v1228h-1536v-1228zM307 307v105l277 360l188 -156l354 537l410 -424v-422h-1229zM307 1073q0 66 45 111t111 45q63 0 108 -45 t45 -111q0 -63 -45 -108t-108 -45q-66 0 -111 45t-45 108z" />
<glyph unicode="&#xf040;" horiz-adv-x="1536" d="M0 0l137 418l867 866l280 -280l-866 -867zM287 407.5q0 -12.5 10 -22.5q8 -8 22 -8q12 0 21 8l690 690q20 20 0 43q-10 10 -22.5 10t-20.5 -10l-690 -688q-10 -10 -10 -22.5zM1102 1382l119 119q35 35 84 35t84 -35l57 -55l55 -57q35 -35 35 -84.5t-35 -83.5l-119 -119z " />
<glyph unicode="&#xf041;" horiz-adv-x="1128" d="M0 1001q0 117 44 220.5t121 180.5t180.5 121t219.5 44q117 0 219.5 -44t179 -121t120.5 -180.5t44 -220.5q0 -84 -24.5 -159.5t-65.5 -143.5l-379 -661q-41 -68 -95 -68t-93 68l-381 663q-41 68 -65.5 143t-24.5 158zM285 1001q0 -57 21.5 -108t60.5 -89t89 -59.5 t109 -21.5q57 0 108.5 21.5t89.5 59.5t59.5 89t21.5 108t-21.5 108.5t-59.5 90.5t-89 60.5t-109 21.5q-59 0 -109 -21.5t-89 -60.5t-60.5 -90t-21.5 -109z" />
<glyph unicode="&#xf042;" horiz-adv-x="1597" d="M0 768q0 166 62.5 311.5t171 254t254 171t311.5 62.5t311 -62.5t254 -171t171 -254t62 -311.5t-62 -311.5t-171 -254t-254 -171t-311 -62.5t-311.5 62.5t-254 171t-171 254t-62.5 311.5zM240 768q0 -117 44 -218t119.5 -177t177 -120t218.5 -44v1118q-117 0 -218.5 -44 t-177 -120t-119.5 -177t-44 -218z" />
<glyph unicode="&#xf043;" horiz-adv-x="1130" d="M0 535q0 86 23.5 161.5t66.5 141.5q20 33 69.5 99.5t108 154.5t113.5 193.5t90 217.5q10 35 37 51.5t57 12.5q31 4 57.5 -12.5t36.5 -51.5q33 -113 89.5 -218t115 -193t107.5 -154.5t69 -99.5q43 -66 66.5 -141.5t23.5 -161.5q0 -117 -44 -220.5t-120.5 -180.5t-180 -121 t-220.5 -44t-220 44t-180 121t-121 180.5t-44 220.5zM248 410q0 -59 41 -100.5t100 -41.5t100 41t41 101q0 43 -22 75q-6 8 -18.5 24.5t-26.5 39t-28.5 48.5t-22.5 54q-4 20 -23 17q-18 4 -24 -17q-8 -29 -21.5 -54.5t-28 -48t-27 -38.5t-18.5 -25q-23 -33 -22 -75z" />
<glyph unicode="&#xf044;" d="M0 307v922q0 63 24.5 119.5t65.5 97.5t97.5 65.5t119.5 24.5h1075q4 0 10.5 -1t10.5 -1l-191 -191h-905q-47 0 -80.5 -33.5t-33.5 -80.5v-922q0 -47 33.5 -80.5t80.5 -33.5h1075q47 0 81 33.5t34 80.5v445l193 192v-637q0 -63 -25 -118.5t-67 -97.5t-97 -66.5t-119 -24.5 h-1075q-63 0 -119.5 24.5t-97.5 66.5t-65.5 97.5t-24.5 118.5zM631 324l108 329l652 652l221 -222l-651 -651zM866 629q6 -8 17 -8q10 0 16 8l512 510q18 18 0 35q-18 16 -35 0l-510 -510q-18 -18 0 -35zM1501 1415l92 94q29 29 68 29t65 -29l46 -45l45 -45 q27 -29 27.5 -66.5t-27.5 -66.5l-95 -92z" />
<glyph unicode="&#xf045;" d="M0 307v922q0 63 24.5 119.5t65.5 97.5t97.5 65.5t119.5 24.5h836q-6 -31 -6 -63v-52q-164 -20 -310 -78h-509F8532A44" />
<glyph unicode="&#xf046;" d="M0 307v922q0 63 24.5 119.5t65.5 97.5t97.5 65.5t119.5 24.5h1075q27 0 52 -6l-187 -187h-940q-47 0 -80.50DDA66DA11" />
<glyph unicode="&#xf047;" horiz-adv-x="1597" d="M0 768q0 25 18 43l256 256q27 27 45.5 19.5t18.5 -46.5v-170h360v359h-172q-37 0 -45 18.5t19 44.5l256 256q18 18 43 19q25 0 43 -19l256 -256q27 -27 19.5 -45t-46.5 -18h-172v-359h361v170q0 39 18 46.5t45 -19.5l256 -256q18 -18 18 -43t-18 -43l-256 -256 q-27 -27 -45 -19.5t-18 46.5v176h-361v-365h172q39 0 47 -18.5t-20 -44.5l-256 -256q-18 -18 -43 -19q-25 0 -43 19l-256 256q-27 27 -20 45t46 18h172v365h-360v-176q0 -39 -18.5 -46.5t-45.5 19.5l-256 256q-18 18 -18 43z" />
<glyph unicode="&#xf048;" horiz-adv-x="1075" d="M0 76q0 -31 22.5 -53.5t53.5 -22.5h153q33 0 55.5 22.5t22.5 53.5v1382q0 33 -22.5 55.5t-55.5 22.5h-153q0EEE8A4AB5" />
<glyph unicode="&#xf049;" d="M0 76q0 -31 22.5 -53.5t53.5 -22.5h153q33 0 55.5 22.5t22.5 53.5v1382q0 33 -22.5 55.5t-55.5 22.5h-153q06FC36EA03" />
<glyph unicode="&#xf04a;" horiz-adv-x="1536" d="M0 767q0 26 16 44l654 707q14 18 41 18q10 0 22 -6q35 -14 35 -57v-1412q0 -41 -35 -57q-37 -16 -63 14l-654 705q-16 18 -16 44zM768 767q0 26 16 44l654 707q14 18 41 18q10 0 22 -6q35 -14 35 -57v-1412q0 -41 -35 -57q-37 -16 -63 14l-654 705q-16 18 -16 44z" />
<glyph unicode="&#xf04b;" horiz-adv-x="1349" d="M0 70v1396q0 39 35 60q37 23 69 0l1211 -697q35 -25 35 -61q0 -37 -35 -61l-1211 -697q-16 -10 -34 -10t-35 10q-35 20 -35 60z" />
<glyph unicode="&#xf04c;" horiz-adv-x="1536" d="M0 70v1396q0 29 20.5 49.5t49.5 20.5h489q29 0 49.5 -20.5t20.5 -49.5v-1396q0 -29 -20.5 -49.5t-49.5 -200BB1B30A66" />
<glyph unicode="&#xf04d;" horiz-adv-x="1536" d="M0 70v1396q0 29 20.5 49.5t49.5 20.5h1396q29 0 49.5 -20.5t20.5 -49.5v-1396q0 -29 -20.5 -49.5t-49.5 -20.5h-1396q-29 0 -49.5 20.5t-20.5 49.5z" />
<glyph unicode="&#xf04e;" horiz-adv-x="1536" d="M0 61v1414q0 39 35 57q39 14 63 -14l654 -705q16 -18 16 -45t-16 -45l-654 -705q-16 -18 -41 -18q-6 0 -22 4q-35 16 -35 57zM768 61v1414q0 39 35 57q39 14 63 -14l654 -705q16 -18 16 -45t-16 -45l-654 -705q-16 -18 -41 -18q-6 0 -22 4q-35 16 -35 57z" />
<glyph unicode="&#xf050;" d="M0 61v1414q0 39 35 57q39 14 63 -14l654 -705q16 -18 16 -45t-16 -45l-654 -705q-16 -18 -41 -18q-6 0 -22 4q-35 16 -35 57zM768 61v1414q0 39 35 57q39 14 63 -14l654 -705q16 -18 16 -45t-16 -45l-654 -705q-16 -18 -41 -18q-6 0 -22 4q-35 16 -35 57zM1536 76 q0 -31 22.5 -53.5t53.5 -22.5h153q33 0 55.5 22.5t22.5 53.5v1382q0 33 -22.5 55.5t-55.5 22.5h-153q-31 0 -53.5 -22.5t-22.5 -55.5v-1382z" />
<glyph unicode="&#xf051;" horiz-adv-x="1075" d="M0 61v1414q0 39 35 57q39 14 63 -14l654 -705q16 -18 16 -45t-16 -45l-654 -705q-16 -18 -41 -18q-6 0 -22 4q-35 16 -35 57zM768 76q0 -31 22.5 -53.5t53.5 -22.5h153q33 0 55.5 22.5t22.5 53.5v1382q0 33 -22.5 55.5t-55.5 22.5h-153q-31 0 -53.5 -22.5t-22.5 -55.5 v-1382z" />
<glyph unicode="&#xf052;" horiz-adv-x="1536" d="M0 70v198q0 29 20.5 49.5t49.5 20.5h1396q29 0 49.5 -20.5t20.5 -49.5v-198q0 -29 -20.5 -49.5t-49.5 -20.5h-1396q-29 0 -49.5 20.5t-20.5 49.5zM6 594q-18 43 14 76l699 698q20 20 49 20.5t49 -20.5l699 -698q33 -33 14 -76q-16 -43 -64 -43h-1396q-47 0 -64 43z" />
<glyph unicode="&#xf053;" horiz-adv-x="964" d="M0 765q0 38 29 66l671 674q29 29 68 29t68 -29l100 -100q29 -29 29 -68t-29 -67l-508 -510l508 -500q29 -29 29 -66.5t-29 -66.5l-100 -102q-29 -29 -68 -29t-68 29l-671 673q-29 29 -29 67z" />
<glyph unicode="&#xf054;" horiz-adv-x="964" d="M0 194.5q0 38.5 29 67.5l508 508l-508 502q-29 29 -29 66.5t29 66.5l100 102q29 29 68 29t67 -29l672 -6730E3FA59AE7" />
<glyph unicode="&#xf055;" horiz-adv-x="1597" d="M0 768q0 166 62.5 311.5t171 254t254 171t311.5 62.5t311 -62.5t254 -171t171 -254t62 -311.5t-62 -311.5t-171 -254t-254 -171t-311 -62.5t-311.5 62.5t-254 171t-171 254t-62.5 311.5zM338 688q0 -33 33 -33h313v-344q0 -33 33 -32h164q33 0 32 32v344h314 q12 0 22.5 9.5t10.5 23.5v158q0 14 -10.5 23.5t-22.5 9.5h-314v346q0 33 -32 32h-164q-33 0 -33 -32v-346h-313q-33 0 -33 -33v-158z" />
<glyph unicode="&#xf056;" horiz-adv-x="1597" d="M0 768q0 166 62.5 311.5t171 254t254 171t311.5 62.5t311 -62.5t254 -171t171 -254t62 -311.5t-62 -311.5t-171 -254t-254 -171t-311 -62.5t-311.5 62.5t-254 171t-171 254t-62.5 311.5zM338 688q0 -33 33 -33h856q12 0 22.5 9.5t10.5 23.5v158q0 14 -10.5 23.5 t-22.5 9.5h-856q-33 0 -33 -33v-158z" />
<glyph unicode="&#xf057;" horiz-adv-x="1597" d="M0 770q0 154 58.5 301.5t174.5 263.5q117 117 264.5 175.5t301 58.5t301 -58.5t264.5 -175.5t175 -264t58 -301t-58 -301t-175 -264t-264.5 -175.5t-301 -58.5t-301 58.5t-264.5 175.5t-175 264t-58 301zM385 505q0 -13 10 -24l115 -116q10 -10 23.5 -10.5t23.5 10.5 l244 243l219 -221q10 -10 23.5 -10t23.5 10l113 113q23 23 0 47l-222 219l246 246q23 23 0 47l-117 115q-25 25 -47 0l-243 -244l-222 221q-10 10 -23 10t-24 -10l-110 -113q-25 -23 0 -47l219 -219l-242 -244q-10 -10 -10 -23z" />
<glyph unicode="&#xf058;" horiz-adv-x="1597" d="M0 768q0 166 62.5 311.5t171 254t254 171t311.5 62.5t311 -62.5t254 -171t171 -254t62 -311.5t-62 -311.5t-171 -254t-254 -171t-311 -62.5t-311.5 62.5t-254 171t-171 254t-62.5 311.5zM240 718q0 -20 14 -34l319 -319q14 -14 38 -24.5t44 -10.5h56q20 0 43.5 10 t38.5 25l550 550q14 14 14.5 34t-14.5 34l-104 107q-16 14 -35.5 14t-34.5 -14l-452 -453q-14 -14 -33.5 -14t-34.5 14l-221 221q-14 14 -33.5 14t-36.5 -14l-104 -106q-14 -14 -14 -34z" />
<glyph unicode="&#xf059;" horiz-adv-x="1597" d="M0 768q0 166 62.5 311.5t171 254t254 171t311.5 62.5t311 -62.5t254 -171t171 -254t62 -311.5t-62 -311.5t-171 -254t-254 -171t-311 -62.5t-311.5 62.5t-254 171t-171 254t-62.5 311.5zM532 1100l95 -115q4 -8 20 -12q12 0 23 6l10 8t27.5 17.5t39 16.5t46.5 7 q41 0 69.5 -22.5t28.5 -57.5q0 -37 -24.5 -64.5t-61.5 -60.5q-23 -18 -46.5 -40.5t-43 -51.5t-31.5 -63.5t-12 -79.5v-64q0 -12 9 -21t21 -9h164q12 0 20.5 9t8.5 21v51q0 39 25.5 66.5t62.5 60.5q25 20 49.5 46t46 57t34.5 69.5t13 90.5q0 68 -27.5 121t-73.5 87.5 t-103.5 53t-114.5 18.5q-63 0 -113.5 -16.5t-85.5 -35.5t-53 -35.5t-20 -18.5q-16 -16 -3 -39zM672 252q0 -12 9 -21.5t21 -9.5h164q12 0 20.5 9.5t8.5 21.5v156q0 12 -8 21t-21 9h-164q-12 0 -21 -9t-9 -21v-156z" />
<glyph unicode="&#xf05a;" horiz-adv-x="1597" d="M0 768q0 166 62.5 311.5t171 254t254 171t311.5 62.5t311 -62.5t254 -171t171 -254t62 -311.5t-62 -311.5t-171 -254t-254 -171t-311 -62.5t-311.5 62.5t-254 171t-171 254t-62.5 311.5zM573 858q0 -29 29 -29h86v-409h-78q-12 0 -21 -8.5t-9 -20.5v-139q0 -12 9 -21.5 t21 -9.5h402q12 0 20 9.5t8 21.5v139q0 29 -28 29h-78v577q0 12 -8 21.5t-21 9.5h-303q-12 0 -20.5 -9t-8.5 -22v-139zM686 1151q0 -12 9.5 -21.5t21.5 -9.5h188q12 0 20.5 9.5t8.5 21.5v166q0 29 -29 29h-188q-12 0 -21.5 -8.5t-9.5 -20.5v-166z" />
<glyph unicode="&#xf05b;" horiz-adv-x="1536" d="M0 692v154q0 16 11.5 26.5t27.5 10.5h164q18 84 59 158.5t99.5 133t133 99.5t158.5 59v164q0 39 39 39h154q16 0 26.5 -11.5t10.5 -27.5v-164q84 -18 158.5 -59t133 -99.5t99.5 -133t59 -158.5h164q16 0 27.5 -10.5t11.5 -26.5v-154q0 -39 -39 -39h-164 q-18 -84 -59 -158.5t-99.5 -133t-133 -99.5t-158.5 -59v-164q0 -16 -10.5 -27.5t-26.5 -11.5h-154q-39 0 -39 39v164q-84 18 -158.5 59t-133 99.5t-99.5 133t-59 158.5h-164q-39 0 -39 39zM365 653q29 -106 105.5 -183t182.5 -105v174q0 16 11.5 26t27.5 10h154 q16 0 26.5 -10t10.5 -26v-174q106 29 183 105.5t105 182.5h-172q-39 0 -38 39v154q0 16 11 26.5t27 10.5h172q-29 106 -105.5 183t-182.5 105v-172q0 -16 -10.5 -27t-26.5 -11h-154q-39 0 -39 38v172q-106 -29 -183 -105.5t-105 -182.5h174q16 0 26 -10.5t10 -26.5v-154 q0 -16 -10 -27.5t-26 -11.5h-174z" />
<glyph unicode="&#xf05c;" horiz-adv-x="1597" d="M0 768q0 166 62.5 311.5t171 254t254 171t311.5 62.5t311 -62.5t254 -171t171 -254t62 -311.5t-62 -311.5t006EED4AEB" />
<glyph unicode="&#xf05d;" horiz-adv-x="1597" d="M0 768q0 166 62.5 311.5t171 254t254 171t311.5 62.5t311 -62.5t254 -171t171 -254t62 -311.5t-62 -311.5t07B0774AD5" />
<glyph unicode="&#xf05e;" horiz-adv-x="1597" d="M0 768q0 166 62.5 311.5t171 254t254 171t311.5 62.5t311 -62.5t254 -171t171 -254t62 -311.5t-62 -311.5t-171 -254t-254 -171t-311 -62.5t-311.5 62.5t-254 171t-171 254t-62.5 311.5zM240 768q0 -84 23.5 -160t66.5 -141l770 770q-66 43 -141.5 66.5t-159.5 23.5 q-117 0 -218.5 -44t-177 -120t-119.5 -177t-44 -218zM498 297q66 -41 141.5 -64.5t159.5 -23.5q117 0 218 44t177 120t120 177t44 218q0 84 -23.5 160t-64.5 141z" />
<glyph unicode="&#xf060;" horiz-adv-x="1536" d="M0 768q0 39 29 68l671 673q29 29 68 29t68 -29l100 -100q29 -29 29 -67.5t-29 -67.5l-338 -338h842q41 0 68.5 -27.5t27.5 -68.5v-144q0 -39 -27.5 -66.5t-66.5 -27.5h-844l338 -338q29 -29 29 -67.5t-29 -67.5l-100 -100q-29 -29 -68 -29t-68 29l-671 671q-29 29 -29 68 z" />
<glyph unicode="&#xf061;" horiz-adv-x="1536" d="M0 698v144q0 39 27.5 66.5t66.5 27.5h844l-338 338q-29 29 -29 67.5t29 67.5l100 100q29 29 68 29t68 -29l0120B5BA74" />
<glyph unicode="&#xf062;" horiz-adv-x="1536" d="M-1 768q-1 39 28 68l673 671q29 29 68 29t68 -29l671 -671q29 -29 29 -68t-29 -68l-100 -100q-29 -29 -66.5 -29t-66.5 29l-340 338v-844q0 -39 -27.5 -66.5t-66.5 -27.5h-144q-41 0 -67.5 27.5t-26.5 66.5v844l-338 -338q-29 -29 -67.5 -29t-67.5 29l-100 100 q-29 29 -30 68z" />
<glyph unicode="&#xf063;" horiz-adv-x="1536" d="M0 766q0 39 29 68l100 100q29 29 68 29t67 -29l338 -338v844q0 39 27.5 66.5t66.5 27.5h144q41 0 67.5 -27.5t26.5 -66.5v-844l340 338q29 29 66.5 29t66.5 -29l102 -100q29 -29 29 -68t-29 -68l-673 -671q-29 -29 -68 -29t-68 29l-671 671q-29 29 -29 68z" />
<glyph unicode="&#xf064;" d="M0 135q0 209 71.5 393.5t218 322.5t371 219t531.5 83v293q0 72 36 87t89 -36l491 -493q35 -33 35 -82q0 -47 -35 -82l-491 -494q-51 -51 -88 -35.5t-37 86.5v330q-262 -2 -461 -56.5t-336 -147.5t-215 -219t-98 -271q-4 -33 -37 -33h-2q-33 0 -37 33q-6 51 -6 102z" />
<glyph unicode="&#xf065;" horiz-adv-x="1536" d="M0 86v522q0 53 26.5 64.5t65.5 -25.5l166 -166l274 275q12 12 31 12t33 -12l160 -160q12 -14 12 -32.5t-1201707ECA23" />
<glyph unicode="&#xf066;" horiz-adv-x="1536" d="M0 202.5q0 18.5 12 33.5l275 272l-166 166q-39 39 -27 65.5t66 26.5h520q38 0 61 -25q27 -27 27 -61v-522q0 -53 -26.5 -64.5t-65.5 27.5l-166 166l-274 -275q-12 -14 -31 -14t-33 14l-160 160q-12 12 -12 30.5zM768 854v522q0 53 26.5 64.5t65.5 -27.5l166 -166l274 275 q12 14 31 14t33 -14l160 -160q12 -12 12 -30.5t-12 -33.5l-275 -272l166 -166q39 -39 27 -65.5t-66 -26.5h-520q-41 0 -61 25q-27 27 -27 61z" />
<glyph unicode="&#xf067;" horiz-adv-x="1536" d="M0 696v144q0 39 27.5 66.5t66.5 27.5h508v506q0 41 26.5 68.5t67.5 27.5h144q39 0 66.5 -27.5t27.5 -66.5v0F55CE1AB9" />
<glyph unicode="&#xf068;" horiz-adv-x="1536" d="M0 696v144q0 39 27.5 66.5t66.5 27.5h1348q39 0 66.5 -27.5t27.5 -66.5v-144q0 -39 -27.5 -66.5t-66.5 -27.5h-1346q-41 0 -68.5 26.5t-27.5 67.5z" />
<glyph unicode="&#xf069;" horiz-adv-x="1427" d="M2 1018q-10 37 10 72l72 124q20 35 58 44.5t73 -9.5l332 -192v383q0 41 27.5 68.5t68.5 27.5h141q41 0 69 -27.5t28 -66.5v-385l331 192q35 18 73 9t58 -44l70 -124q20 -35 11 -72t-44 -57l-333 -193l333 -193q35 -20 44.5 -57t-9.5 -72l-72 -124q-20 -35 -58 -44.5 t-73 9.5l-331 192v-383q0 -41 -28 -68.5t-69 -27.5h-141q-41 0 -68.5 27.5t-27.5 66.5v385l-332 -192q-35 -20 -73 -10t-58 45l-72 124q-18 35 -9 72t44 57l334 193l-334 193q-35 20 -45 57z" />
<glyph unicode="&#xf06a;" horiz-adv-x="1597" d="M0 768q0 166 62.5 311.5t171 254t254 171t311.5 62.5t311 -62.5t254 -171t171 -254t62 -311.5t-62 -311.5t-171 -254t-254 -171t-311 -62.5t-311.5 62.5t-254 171t-171 254t-62.5 311.5zM672 1274l14 -739q4 -29 31 -29h162q12 0 21 8t9 21l17 739q0 10 -8 22q-8 8 -23 9 h-193q-14 0 -22 -9q-8 -12 -8 -22zM680 236q0 -12 8 -21.5t21 -9.5h180q12 0 21.5 9t9.5 22v174q0 12 -9.5 21t-21.5 9h-180q-12 0 -20.5 -9t-8.5 -21v-174z" />
<glyph unicode="&#xf06b;" horiz-adv-x="1880" d="M0 588v391q0 16 11.5 27.5t27.5 11.5h539q-57 0 -107.5 21.5t-87.5 58.5t-58.5 87t-21.5 107t21.5 107.5t50DD0F40AD5" />
<glyph unicode="&#xf06c;" horiz-adv-x="1916" d="M6 135q20 53 56 89t71 65q29 23 50.5 43t27.5 43q2 6 0 12t-10 25q-6 12 -11.5 27.5t-9.5 35.5q-25 160 130E69F54A61" />
<glyph unicode="&#xf06d;" horiz-adv-x="1445" d="M0 442q0 123 63.5 254t174.5 238q10 16 33.5 13t31.5 -21q4 -16 0 -29q-8 -35 -14 -84t-4 -101.5t13 -101.5t38 -84q31 -37 78 -49q-49 154 -40 293t49 259t101.5 217t118.5 167t98 106.5t43 39.5q25 18 47 0q10 -8 13.5 -21.5t-0.5 -24.5q0 -2 -15.5 -42.5t-21.5 -102 t7 -134.5t71 -136q37 -43 67.5 -85t52 -93.5t34 -120t12.5 -162.5q0 -33 -31 -39q-12 -2 -24.5 4t-16.5 19q-14 31 -42 49t-63 18q-47 0 -79.5 -33.5t-32.5 -81.5q0 -121 156 -120q98 0 153 63q37 43 53.5 101.5t20.5 114.5t2 102.5t-4 62.5q-6 12 0 29q8 18 31.5 21 t35.5 -13q111 -106 173.5 -237.5t62.5 -254.5q0 -109 -51.5 -195.5t-145.5 -148t-228 -95.5t-298 -34t-298 34t-228.5 95.5t-145.5 148.5t-51 195z" />
<glyph unicode="&#xf06e;" d="M0 722q0 44 25 83q78 125 178 224t216 168t242.5 104.5t260.5 35.5q135 0 262 -35.5t241.5 -103.5t215 -1600E36D1A1A" />
<glyph unicode="&#xf070;" d="M0 767q0 44 25 83q78 125 178 224.5t216 168t242.5 104t260.5 35.5q53 0 105 -7t103 -17l89 158q8 14 24 18q12 6 29 -2l133 -76q14 -8 19.5 -23.5t-3.5 -29.5l-774 -1383q-6 -14 -22 -18q-4 -2 -11 -2q-6 0 -18 4l-135 76q-14 8 -18.5 23.5t3.5 29.5l66 115 q-145 68 -269 178.5t-218 259.5q-25 37 -25 81zM154 768q82 -131 191.5 -229.5t240.5 -157.5l57 104q-86 63 -138 159.5t-52 213.5q0 78 25.5 148.5t68.5 130.5q-117 -61 -217.5 -153.5t-175.5 -215.5zM614 858q0 -23 16.5 -40t41.5 -17t41 17.5t16 39.5q0 78 53.5 131 t130.5 53q25 0 41.5 17.5t16.5 40.5q0 25 -16.5 41t-41.5 16q-61 0 -116.5 -23.5t-95 -63.5t-63.5 -95.5t-24 -116.5zM928 154l88 159q209 25 382 145t292 310q-109 170 -263 283l76 137q92 -66 172 -150t146 -188q23 -39 22.5 -83t-22.5 -81q-160 -254 -392.5 -392 t-500.5 -140zM1081 430l285 510q4 -20 6 -39.5t2 -42.5q0 -74 -21.5 -140.5t-60.5 -121.5t-93 -98t-118 -68z" />
<glyph unicode="&#xf071;" horiz-adv-x="1775" d="M0 92q0 20 6 39t17 35l768 1331q16 27 39.5 48.5t56.5 21.5t56.5 -21.5t39.5 -48.5l770 -1331q10 -16 16.5 -34.5t6.5 -39.5q0 -49 -38 -70.5t-81 -21.5h-1538q-43 0 -81 21.5t-38 70.5zM770 1114l12 -633q0 -14 10.5 -24.5t24.5 -10.5h139q14 0 24.5 10.5t10.5 24.5 l15 633q0 14 -10.5 24.5t-24.5 10.5h-166q-16 0 -25.5 -10.5t-9.5 -24.5zM776 168q0 -16 10.5 -25.5t24.5 -9.5h154q35 0 34 35v147q0 16 -9 26.5t-25 10.5h-154q-14 0 -24.5 -10t-10.5 -27v-147z" />
<glyph unicode="&#xf072;" horiz-adv-x="1597" d="M0 541v4q0 31 23 57l30 29q20 25 56 24q8 0 10 -2l280 -32q39 63 93.5 134.5t125.5 151.5l-583 457q-31 25 -31 59v4q0 31 23 58l57 57q27 23 57 23h13.5t13.5 -4l803 -293l151 149q70 70 161 110t167 40q72 0 109 -37q20 -18 28 -46t8 -63q0 -76 -38.5 -167t-110.5 -160 l-150 -152l293 -803q6 -12 6 -26q0 -33 -24 -58l-58 -57q-23 -25 -57 -25h-4q-35 4 -59 31l-455 586q-82 -72 -153.5 -126t-135.5 -93l35 -281v-10q0 -33 -22 -55l-31 -31q-23 -23 -58 -23h-4q-39 4 -59 31l-205 272l-274 207q-29 25 -31 60z" />
<glyph unicode="&#xf073;" horiz-adv-x="1566" d="M0 117v1147q0 47 35 81.5t82 34.5h39v13q0 31 10 62.5t32.5 56t59.5 40t90 15.5t90 -15.5t59.5 -40t33 -56.5t10.5 -62v-13h49v13q0 31 10 62.5t32.5 56t59.5 40t90 15.5t90 -15.5t60.5 -40t34 -56.5t10.5 -62v-13h49v13q0 31 10.5 62.5t33 56t59 40t90.5 15.5 q53 0 90 -15.5t59.5 -40t32.5 -56.5t10 -62v-13h39q47 0 82 -34.5t35 -81.5v-1147q0 -47 -35 -82t-82 -35h-1333q-47 0 -82 35t-35 82zM158 158h282v250h-282v-250zM158 446h282v252h-282v-252zM158 737h282v252h-282v-252zM272 1165q0 -57 76 -57t76 57v228q0 57 -76 57 t-76 -57v-228zM479 158h285v250h-285v-250zM479 446h285v252h-285v-252zM479 737h285v252h-285v-252zM709 1165q0 -31 16 -44t57 -13t58.5 13.5t17.5 43.5v228q0 29 -17.5 43t-58.5 14t-57 -14.5t-16 -42.5v-228zM803 158h284v250h-284v-250zM803 446h284v252h-284v-252z M803 737h284v252h-284v-252zM1126 158h283v250h-283v-250zM1126 446h283v252h-283v-252zM1126 737h283v252h-283v-252zM1143 1165q0 -57 76 -57t75 57v228q0 57 -75 57q-76 0 -76 -57v-228z" />
<glyph unicode="&#xf074;" d="M0 252v154q0 16 11.5 27t27.5 11h219q51 0 99.5 31t93.5 83t90 119.5t90 139.5q55 88 114.5 175t127 156t147.5 110.5t180 41.5h203v185q0 41 24.5 49t59.5 -21l334 -278q23 -18 22 -45q0 -29 -22 -47l-334 -277q-35 -29 -59.5 -20.5t-24.5 49.5v174h-203 q-53 0 -100 -31.5t-93 -84t-91.5 -120t-90.5 -139.5q-55 -88 -113.5 -174t-126 -154.5t-148.5 -110.5t-179 -42h-219q-16 0 -27.5 11.5t-11.5 27.5zM0 1108v154q0 39 39 38h219q68 0 127 -20t111.5 -56t97.5 -84t88 -104q-61 -90 -117 -178q-4 -8 -9 -14t-9 -15 q-70 102 -139.5 172t-149.5 70h-219q-16 0 -27.5 10.5t-11.5 26.5zM778 481q29 41 56.5 85t56.5 87q4 10 10 17.5t10 17.5q70 -102 139.5 -170.5t149.5 -68.5h203v190q0 41 24.5 49t59.5 -20l334 -277q23 -18 22 -47q0 -27 -22 -45l-334 -279q-35 -29 -59.5 -20.5 t-24.5 49.5v168h-203q-68 0 -127 20.5t-110.5 56.5t-97.5 84t-87 103z" />
<glyph unicode="&#xf075;" horiz-adv-x="1916" d="M0 866q0 145 76 272.5t206 222.5t303.5 150.5t372.5 55.5t373 -55.5t304 -150.5t206 -222t76 -273q0 -145 02FA152A9F" />
<glyph unicode="&#xf076;" horiz-adv-x="1566" d="M0 621v288q0 16 11.5 27.5t27.5 11.5h391q16 0 28.5 -11t12.5 -28v-288q0 -29 22.5 -60t63.5 -58.5t98.5 -45t128.5 -17.5q70 0 128.5 17.5t99.5 45t63.5 58.5t22.5 60v288q0 39 39 39h391q16 0 27.5 -11t11.5 -28v-288q0 -135 -61.5 -254t-168 -207t-249 -139.5 t-304.5 -51.5q-164 0 -306 51.5t-248.5 139.5t-168 206.5t-61.5 254.5zM0 1106v391q0 16 11.5 27.5t27.5 11.5h391q16 0 28.5 -11.5t12.5 -27.5v-391q0 -16 -12.5 -27.5t-28.5 -11.5h-391q-16 0 -27.5 11.5t-11.5 27.5zM1098 1106v391q0 16 11 27.5t28 11.5h391 q16 0 27.5 -11.5t11.5 -27.5v-391q0 -16 -11.5 -27.5t-27.5 -11.5h-391q-39 0 -39 39z" />
<glyph unicode="&#xf077;" horiz-adv-x="1536" d="M-1 355.5q-1 37.5 28 66.5l673 674q29 29 68 28.5t68 -28.5l671 -674q29 -29 29 -67t-29 -66l-100 -103q-20E5B254A9F" />
<glyph unicode="&#xf078;" horiz-adv-x="1536" d="M0 918.5q0 37.5 29 66.5l100 102q29 29 68 29t67 -29l508 -509l500 509q29 29 67.5 29t67.5 -29l100 -102q070167DA4F" />
<glyph unicode="&#xf079;" horiz-adv-x="1916" d="M2.5 1038.5q-12.5 30.5 28.5 75.5l385 424q25 29 63 29q39 0 64 -29l385 -424q41 -45 28.5 -75.5t-67.5 -30FA11AAAAE" />
<glyph unicode="&#xf07a;" d="M0 1421v76q0 39 39 39h231q16 0 38 -4t36 -8q6 -4 14.5 -14.5t15.5 -23.5t12 -26.5t7 -21.5l27 -125h1347q35 0 58 -27t16 -59l-108 -578q-6 -25 -26.5 -42t-49.5 -17h-1084l35 -168q4 -16 17.5 -26.5t29.5 -10.5h856q16 0 27.5 -11.5t11.5 -27.5v-78q0 -16 -11 -26.5 t-28 -10.5h-163h-652h-104q-16 0 -36.5 3.5t-35.5 9.5q-6 2 -14 13t-15.5 24.5t-12.5 27t-7 21.5l-215 1016q-4 16 -17.5 26t-29.5 10h-170q-39 0 -39 39zM582 115q0 47 33.5 81.5t80.5 34.5q49 0 83 -34.5t34 -81.5t-34 -81t-83 -34q-47 0 -80.5 34t-33.5 81zM1233 115 q0 47 33.5 81.5t81.5 34.5q47 0 80.5 -34.5t33.5 -81.5t-33.5 -81t-80.5 -34t-81 34t-34 81z" />
<glyph unicode="&#xf07b;" d="M0 115v1306q0 47 34 81t81 34h692q47 0 81 -34t34 -81t33.5 -80.5t80.5 -33.5h693q47 0 80.5 -35t33.5 -82v-1075q0 -47 -33.5 -81t-80.5 -34h-1614q-47 0 -81 34t-34 81z" />
<glyph unicode="&#xf07c;" d="M0 379v1042q0 47 34 81t81 34h692q47 0 81 -34t34 -81t33.5 -80.5t80.5 -33.5h443q47 0 80.5 -35t33.5 -82v-221h-1228q-37 0 -72 -12.5t-65.5 -34t-53 -51t-35.5 -64.5zM43 0l246 760q6 23 30.5 39t47.5 16h1476l-260 -758q-6 -23 -30.5 -40t-47.5 -17h-1462z" />
<glyph unicode="&#xf07d;" horiz-adv-x="798" d="M2 368.5q10 22.5 57 22.5h203v754h-203q-47 0 -57 22.5t25 57.5l319 319q23 23 53 23q31 0 54 -23l321 -310E44A0DAC7" />
<glyph unicode="&#xf07e;" horiz-adv-x="1597" d="M0 729q0 31 23 53l319 322q35 33 57.5 23.5t22.5 -56.5v-205h754v203q0 47 22.5 57.5t56.5 -22.5l320 -322q23 -23 22 -53q0 -31 -22 -53l-320 -322q-35 -33 -57 -22.5t-22 57.5v203h-754v-203q0 -47 -22.5 -57t-57.5 24l-319 320q-23 23 -23 53z" />
<glyph unicode="&#xf080;" d="M0 115v1306q0 47 35 81t82 34h1612q47 0 80.5 -34t33.5 -81v-1306q0 -47 -33.5 -81t-80.5 -34h-1612q-47 0 -82 34t-35 81zM154 154h1536v1228h-1536v-1228zM307 264v363h203v-363h-203zM649 264v776h201v-776h-201zM993 264v592h203v-592h-203zM1333 264v922h203v-922 h-203z" />
<glyph unicode="&#xf081;" horiz-adv-x="1536" d="M0 193v1150q0 39 15.5 75t41 61.5t60.5 41t73 15.5h1153q80 0 136.5 -56.5t56.5 -136.5v-1150q0 -41 -15.5 -76t-41 -60.5t-61.5 -41t-75 -15.5h-1153q-39 0 -73.5 15.5t-60 41t-41 60.5t-15.5 76zM201 559q80 -111 198.5 -169t259.5 -58q96 0 184.5 26.5t160 73.5 t124 112.5t76.5 143.5q82 6 129 57q14 14 4 33q-8 18 -30 15h-4q23 23 30 45q8 20 -8 32q-14 14 -33 2q-8 -4 -29.5 -10t-45.5 -6q-4 0 -7.5 1t-7.5 1q0 2 -1 4t-1 4q-16 61 -57 110.5t-94 72.5q4 4 6 8t6 8q6 16 0 33q-2 6 -12.5 16t-34.5 8q-2 4 -6 8q-12 12 -25 9 q-25 -4 -49 -13l-2 2q-14 8 -31 -2q-59 -37 -98 -100t-68 -135q-35 31 -57 41q-61 35 -129 63.5t-154 61.5q-14 4 -24 -4q-10 -6 -15 -21q-2 -27 8.5 -58.5t38.5 -62.5q-25 -6 -20 -32q12 -68 68 -101l-13 -12q-14 -14 -4 -33q4 -12 26.5 -37.5t65.5 -38.5q-6 -12 -6 -22 t2 -14q6 -33 39 -50q-37 -25 -79 -34t-85 -5.5t-83 20.5t-70 46q-8 8 -19.5 8t-19.5 -8q-23 -18 -4 -39z" />
<glyph unicode="&#xf082;" horiz-adv-x="1536" d="M2 193v1150q0 39 15.5 75t41 61.5t60.5 41t74 15.5h1153q80 0 136 -56.5t56 -136.5v-1150q0 -41 -15.5 -760E377D1A4B" />
<glyph unicode="&#xf083;" d="M0 115v1306q0 47 34 81t81 34h1614q47 0 80.5 -34t33.5 -81v-1306q0 -47 -33.5 -81t-80.5 -34h-1614q-47 00A0B674A6B" />
<glyph unicode="&#xf084;" horiz-adv-x="1916" d="M0 803.5q-6 111.5 30 230.5t113 228q78 109 179.5 180t209 102t213 17.5t191.5 -74.5q76 -53 121 -134t59 -176.5t-4 -199t-68 -203.5l414 -297l101 139l-105 74q-14 10 -17 27.5t7 32.5l51 69q10 14 26.5 17.5t32.5 -7.5l344 -247q16 -10 18.5 -27.5t-7.5 -32.5l-49 -69 q-10 -14 -27.5 -17.5t-32.5 6.5l-102 76l-101 -139l248 -178q43 -31 52.5 -83t-21.5 -95q-33 -43 -84 -51.5t-94 22.5l-803 573q-78 -80 -170 -130t-186.5 -68.5t-185.5 -2t-167 71.5q-86 61 -133 157.5t-53 208zM230.5 766q7.5 -41 30 -78t58.5 -63q37 -27 79 -36t83 -2 t78 29.5t64 59.5q39 53 41 114.5t-27 114.5q59 -10 116.5 11.5t96.5 74.5q27 37 36 79t2 84t-29.5 79t-59.5 63q-37 27 -79 36t-84 2t-79 -29.5t-63 -59.5q-37 -53 -39 -114.5t26 -114.5q-59 10 -116.5 -12.5t-96.5 -75.5q-27 -37 -36 -79t-1.5 -83z" />
<glyph unicode="&#xf085;" horiz-adv-x="1916" d="M0 801v180q0 8 22.5 15.5t52 11.5t56.5 7t37 3q12 49 37 88q-23 31 -45.5 61.5t-46.5 59.5l-4 10q0 6 20.5 29.5t47 50t50 47t29.5 20.5q2 0 20.5 -13t41 -30.5t43 -34t24.5 -20.5q43 25 90 37q0 8 3 37t7 57.5t10.5 52t16.5 23.5h178q8 0 15.5 -23.5t11.5 -52t7 -57.5 t5 -37q45 -12 86 -35q31 23 62.5 45.5t60.5 46.5l8 4q4 0 27.5 -21.5t49.5 -47t47.5 -49t21.5 -29.5q0 -4 -13.5 -22.5t-30 -40t-32 -41t-19.5 -25.5q23 -39 39 -92q10 -2 37 -5t55.5 -8.5t51 -11.5t22.5 -14v-178q0 -10 -22.5 -16.5t-51 -11.5t-56.5 -7t-36 -4 q-14 -43 -37 -88q23 -31 44.5 -60.5t48.5 -58.5l2 -10q0 -6 -20.5 -30t-47.5 -50.5t-50.5 -47t-29.5 -20.5q-2 0 -20.5 13.5t-41 31t-42 32.5t-25.5 20q-45 -23 -88 -37q0 -10 -3 -37t-8 -56.5t-12.5 -52t-15.5 -22.5h-178q-8 0 -15.5 22.5t-11.5 52t-7 56t-3 37.5 q-45 12 -88 37q-31 -23 -61.5 -46.5t-59.5 -48.5l-10 -2q-4 0 -27.5 20.5t-49 47t-46 50.5t-20.5 30q0 2 13 20.5t29.5 40t31 41t18.5 25.5q-23 43 -39 94q-10 2 -37 5t-55.5 7t-51 10.5t-22.5 14.5zM420 889q0 -37 14.5 -70t39 -57.5t58 -38.5t70.5 -14t70 14t57.5 38.5 t38.5 57.5t14 70t-14 70.5t-38.5 58t-57.5 39t-70 14.5q-76 0 -129 -53t-53 -129zM1114 373q0 6 13.5 13t31 14.5t33.5 12.5t22 7q4 23 9.5 39t15.5 37q-4 4 -13 17t-18.5 27.5t-16.5 28t-7 17.5t18.5 23.5t43 41t47 40t28.5 24.5l8 4q4 0 16.5 -8.5t25.5 -19.5t25.5 -21.5 t16.5 -14.5q35 12 76 19q2 6 9 21.5t16.5 30.5t17.5 27.5t14 12.5q4 0 34 -7t63.5 -18.5t60.5 -23.5t27 -23q0 -23 -5.5 -47t-9.5 -47q16 -12 28.5 -26.5t22.5 -30.5q25 2 49.5 3t47.5 1q8 0 18 -26.5t17.5 -60.5t12.5 -64.5t5 -39.5q0 -6 -13.5 -13t-29.5 -13t-32.5 -12.5 t-22.5 -8.5q-9 -38 -23 -71q2 -6 11.5 -18.5t18.5 -27t16 -27.5t7 -18q0 -4 -18.5 -23.5t-43 -41t-47 -40.5t-28.5 -26l-8 -4q-4 0 -16.5 8.5t-25.5 19.5t-25.5 21.5t-16.5 14.5q-37 -12 -78 -19q-2 -6 -9 -21.5t-15.5 -30.5t-16.5 -27.5t-14 -12.5t-35 7.5t-62.5 18.5 t-60 23.5t-26.5 22.5q0 23 5 47.5t9 46.5q-16 12 -28.5 26.5t-22.5 30.5q-23 -2 -45.5 -3t-44.5 -1h-14.5t-8.5 11q-2 8 -8 35.5t-13.5 58t-12.5 55.5t-5 29zM1192 1264q0 6 12.5 12t29.5 10t33.5 6t22.5 4q10 33 31 64q-2 4 -8 17.5t-12.5 27.5t-11.5 25.5t-5 15.5 q0 6 21.5 22.5t49 35t51.5 32.5t28 14t13 -9t20.5 -21.5t20.5 -23.5t13 -15q14 4 28.5 6t29.5 0h14q2 4 11 16.5t18.5 25.5t17.5 23.5t12 10.5t30 -11.5t55.5 -26t53 -28.5t23.5 -20q0 -4 -4 -15.5t-8 -26t-8.5 -27.5t-6.5 -17q20 -25 39 -60q51 -4 74 -7t29 -18.5t5 -52 t3 -106.5q0 -6 -12.5 -12.5t-28.5 -10.5t-32.5 -6t-22.5 -4q-13 -36 -31 -63q2 -4 8 -16.5t13.5 -27t12.5 -26.5t5 -14q0 -6 -22.5 -23.5t-50 -36t-51.5 -33t-26 -14.5q-4 0 -14 9.5t-21.5 21.5t-20.5 23.5t-13 15.5q-14 -4 -28.5 -6t-29.5 0h-14q-4 -4 -12 -16.5t-17.5 -26 t-18.5 -23.5t-13 -10t-30 11t-54.5 25.5t-52 29t-23.5 20.5q0 2 3 14.5t8 26.5t9 27.5t6 17.5q-23 23 -38 59q-53 2 -75 5t-29 18.5t-5 52.5t-4 109zM1397 367q0 -49 34.5 -85t84.5 -36q49 0 84.5 34.5t35.5 86.5q0 49 -34.5 83.5t-85.5 34.5q-49 0 -84 -34.5t-35 -83.5z M1446 1206q0 -47 31.5 -78.5t76.5 -31.5q47 0 79 31.5t32 76.5q0 47 -31.5 79t-77.5 32q-47 0 -78.5 -32t-31.5 -77z" />
<glyph unicode="&#xf086;" horiz-adv-x="1916" d="M0 997q0 119 61.5 222.5t167 180.5t246.5 122t303 45t303.5 -45t247 -122t166.5 -180.5t61 -222.5q0 -117 -61 -221t-166.5 -181t-247 -122t-303.5 -45q-37 0 -73.5 3t-71.5 7q-147 -113 -336 -155q-20 -4 -40.5 -7.5t-43.5 -7.5q-12 -2 -21.5 6.5t-13.5 18.5v2 q-4 12 3 19.5t18 17.5q18 18 34.5 36.5t29.5 42t24.5 55.5t19.5 79q-141 78 -224 195.5t-83 256.5zM649 258q6 4 13.5 8t13.5 8q51 -6 102 -6q197 0 369 56.5t298 155t198.5 231.5t72.5 286q0 41 -6 84q96 -78 151.5 -175t55.5 -208q0 -139 -83 -256.5t-224 -195.5 q8 -47 19 -79t25.5 -55.5t30 -42t33.5 -36.5q10 -10 17.5 -18.5t3.5 -18.5v-2q-2 -12 -12.5 -19.5t-22.5 -5.5q-23 4 -43.5 7.5t-40.5 7.5q-96 20 -180 60t-156 95q-35 -4 -71.5 -7t-73.5 -3q-141 0 -265 35t-225 94z" />
<glyph unicode="&#xf087;" horiz-adv-x="1597" d="M0 193v643q0 49 35 83.5t84 34.5h348q27 14 43 30.5t35 39.5q16 20 32.5 38.5t34.5 37.5q33 35 76 68.5t66 74.5q16 29 23 64.5t12.5 71.5t12.5 70t23.5 60.5t47 42t81.5 15.5q61 0 111.5 -25.5t85.5 -68.5t54.5 -98.5t19.5 -112.5q0 -59 -17.5 -112.5t-42.5 -107.5 q35 2 70 4.5t70 2.5q55 0 107 -10.5t93 -35t66.5 -67.5t25.5 -109q0 -29 -5 -57t-15 -57q18 -43 18 -90q0 -78 -41 -142q10 -59 -7 -118.5t-58 -104.5q-4 -84 -45 -139.5t-102.5 -89t-135 -47t-143.5 -13.5q-72 0 -144.5 10.5t-142.5 28.5q-70 20 -139.5 43t-142.5 23h-375 q-49 0 -84 34.5t-35 84.5zM236 276q0 -35 22 -57t57 -22q33 0 56.5 22.5t23.5 56.5q0 33 -23.5 56.5t-56.5 23.5q-35 0 -57 -23.5t-22 -56.5zM492 193q70 0 136 -16.5t133.5 -35t141.5 -35t160 -16.5q45 0 98 6t99.5 26.5t78 56.5t31.5 95q0 10 -1 18.5t-3 18.5 q35 16 53.5 53t18.5 74q0 39 -21 68q60 49 60 123q0 23 -12.5 43t-26.5 35q16 29 28.5 57.5t12.5 62.5q0 35 -17.5 55.5t-43 31t-56.5 12.5t-57 2q-45 0 -90.5 -3t-90.5 -3q-31 0 -61.5 3t-58.5 15q0 41 16 78t35.5 74.5t35 78.5t15.5 91q0 33 -10.5 65.5t-29.5 59t-47 44 t-65 17.5h-11t-11 -2q-8 -4 -9 -8t-3 -13q-12 -59 -22.5 -123.5t-39.5 -117.5q-29 -51 -74 -88t-86 -78q-29 -31 -49 -56.5t-41.5 -48t-48.5 -42t-65 -35.5h-2v-643z" />
<glyph unicode="&#xf088;" horiz-adv-x="1597" d="M0 309q0 29 5 57.5t15 57.5q-18 43 -18 90q0 78 41 141q-10 59 7.5 119t58.5 105q4 84 45 139t102 89t135 0D297B5A9D" />
<glyph unicode="&#xf089;" horiz-adv-x="837" d="M1 959.5q9 27.5 54 33.5l506 74l227 459q23 41 50 41v-1348l-453 -237q-41 -23 -64.5 -6.5t-15.5 63.5l86 504l-364 356q-35 33 -26 60.5z" />
<glyph unicode="&#xf08a;" horiz-adv-x="1802" d="M0 1073q0 137 43 231.5t112.5 153t156.5 84t177 25.5q63 0 125 -21.5t115 -53.5t97 -70t75 -68q31 31 76 60F3C2FDA85" />
<glyph unicode="&#xf08b;" horiz-adv-x="1689" d="M0 307v922q0 63 24.5 118.5t66.5 97.5t97.5 66.5t118.5 24.5h461v-193h-461q-47 0 -80.5 -33.5t-33.5 -80.0381553A20" />
<glyph unicode="&#xf08c;" horiz-adv-x="1536" d="M0 193v1150q0 39 15.5 75t41 61.5t60.5 41t76 15.5h1150q80 0 136.5 -56.5t56.5 -136.5v-1150q0 -41 -15.5 -76t-41 -60.5t-61.5 -41t-75 -15.5h-1150q-80 0 -136.5 56.5t-56.5 136.5zM207 1192q0 -57 40 -97t95 -40q57 0 97 40t40 97q0 55 -40 95t-97 40q-55 0 -95 -40 t-40 -95zM213 240q0 -10 9 -19.5t20 -9.5h200q12 0 20.5 9t8.5 20v706q0 29 -29 29h-200q-10 0 -19.5 -8.5t-9.5 -20.5v-706zM580 240q0 -10 9 -19.5t19 -9.5h201q12 0 20.5 9t8.5 20v383q0 68 26.5 113.5t102.5 45.5q59 0 79.5 -28.5t20.5 -81.5v-432q0 -10 8 -19.5 t21 -9.5h204q10 0 19.5 9t9.5 20v477q0 141 -81 208.5t-216 67.5q-55 0 -107.5 -15t-93.5 -56q0 16 -3 34.5t-25 18.5h-195q-10 0 -19 -8.5t-9 -20.5v-706z" />
<glyph unicode="&#xf08d;" horiz-adv-x="1916" d="M2 950q8 82 45 172t100 176t139 147.5t152 92.5t145.5 30t121.5 -40q53 -41 73.5 -107.5t12.5 -148.5l301 0891B8DAAD" />
<glyph unicode="&#xf08e;" d="M0 307v922q0 63 24.5 119.5t65.5 97.5t97.5 65.5t119.5 24.5h582q-2 -14 -4 -27.5t-2 -29.5v-88q0 -23 6 -029C585A6C" />
<glyph unicode="&#xf090;" horiz-adv-x="1689" d="M0 584v368q0 33 22.5 54.5t55.5 21.5h428v293q0 41 37 57q39 14 67 -14l553 -553q16 -18 16.5 -44t-16.5 -42l-553 -553q-18 -18 -43 -18q-8 0 -24 4q-37 16 -37 57v291h-428q-33 0 -55.5 22.5t-22.5 55.5zM922 0v193h460q47 0 81 33.5t34 80.5v922q0 47 -33.5 80.5 t-81.5 33.5h-460v193h460q63 0 118.5 -24.5t97.5 -65.5t67 -97.5t25 -119.5v-922q0 -63 -25 -118.5t-67 -97.5t-97 -66.5t-119 -24.5h-460z" />
<glyph unicode="&#xf091;" horiz-adv-x="1689" d="M0 1042v187q0 33 22.5 54.5t55.5 21.5h323q-2 12 -2 25v24v4q0 53 4.5 88t15.5 54.5t31.5 27.5t55.5 8h6780C5EE34A69" />
<glyph unicode="&#xf092;" horiz-adv-x="1536" d="M0 193v1150q0 39 15.5 75t41 61.5t60.5 41t76 15.5h1150q80 0 136.5 -56.5t56.5 -136.5v-1150q0 -41 -15.508E3075AE5" />
<glyph unicode="&#xf093;" d="M0 39v614q0 16 11.5 27.5t27.5 11.5h229q16 0 27.5 -11t11.5 -28v-346h1229v346q0 16 11.5 27.5t27.5 11.50A9B80FA56" />
<glyph unicode="&#xf094;" horiz-adv-x="1609" d="M2 514q-2 35 1 68.5t7 74.5q4 35 7 72t10 66q14 66 30.5 128t44.5 117q20 41 45 81t54 79q10 14 21 24.5t24 20.5q23 23 45 45.5t49 42.5t57.5 36.5t65.5 33.5q33 16 67.5 29.5t71.5 27.5q70 29 156 51l2 2q45 12 85 17.5t79 5.5q59 0 112.5 -9t106.5 -20q41 -8 85 -15 t93 -7h2q29 0 62.5 5t66.5 5q25 0 45.5 -6t32.5 -25q23 -31 26 -71.5t-2 -75.5q-4 -35 -8 -71t2 -72q4 -23 11.5 -39.5t15.5 -36.5q8 -18 11 -40t7 -42q18 -104 15.5 -195.5t-23 -170.5t-56.5 -148.5t-81 -132.5q-37 -49 -79 -97.5t-92 -91.5t-110.5 -77.5t-134.5 -59.5 q-76 -27 -158.5 -34t-158.5 -11h-31q-104 0 -194.5 16.5t-192.5 16.5h-4q-35 0 -77 -10.5t-83 -12.5h-2q-37 0 -65.5 17.5t-42.5 42.5q-20 35 -17.5 72.5t12.5 68.5t10.5 66.5t-5 75.5t-12.5 81t-9 82z" />
<glyph unicode="&#xf095;" horiz-adv-x="1597" d="M0 1169q0 55 14.5 114.5t43 114t68.5 98.5t93 69q12 -2 26.5 0t26.5 2q10 0 30 -1l40 -2t38.5 -4.5t27.5 -7.5q8 -6 15 -18t12 -26.5t9.5 -30t8.5 -25.5q6 -18 23.5 -65.5t35.5 -97.5t32.5 -93t14.5 -53q0 -37 -24.5 -68t-54 -57.5t-54.5 -50t-25 -45.5q0 -20 16.5 -49 t26.5 -46q84 -145 188.5 -248.5t252.5 -187.5q18 -10 45.5 -27.5t50.5 -17.5t52.5 32t60 70.5t62 70.5t58.5 32q10 0 51.5 -22.5t89.5 -50t93 -55.5t61 -36q16 -10 46 -25.5t40 -35.5q2 -6 2 -23q0 -16 -3 -36.5t-8 -43t-12 -43t-13 -35.5q-18 -39 -59.5 -71.5t-92.5 -55 t-104.5 -36t-92.5 -13.5q-80 0 -153.5 25.5t-145.5 54.5q-123 45 -232.5 118t-203.5 164t-175 196.5t-144 215.5q-25 41 -52.5 95.5t-51 112t-39 113.5t-15.5 105z" />
<glyph unicode="&#xf096;" d="M0 307v922q0 63 24.5 118.5t66.5 97.5t97.5 66.5t118.5 24.5h1075q63 0 118.5 -24.5t97.5 -66.5t67 -97.5t25 -118.5v-922q0 -63 -25 -118.5t-67 -97.5t-97 -66.5t-119 -24.5h-1075q-63 0 -118.5 24.5t-97.5 66.5t-66.5 97.5t-24.5 118.5zM193 307q0 -47 33.5 -80.5 t80.5 -33.5h1075q47 0 81 33.5t34 80.5v922q0 47 -34 80.5t-81 33.5h-1075q-47 0 -80.5 -33.5t-33.5 -80.5v-922z" />
<glyph unicode="&#xf097;" horiz-adv-x="1253" d="M0 84v1337q0 47 34 81t81 34h1024q47 0 80.5 -34t33.5 -81v-1337q0 -47 -33.5 -81t-80.5 -34t-80 33l-432 432l-432 -432q-33 -33 -80 -33t-81 34t-34 81zM158 186l469 471l469 -471v1194h-938v-1194z" />
<glyph unicode="&#xf098;" horiz-adv-x="1536" d="M0 193v1150q0 39 15.5 75t41 61.5t60.5 41t76 15.5h1150q80 0 136.5 -56.5t56.5 -136.5v-1150q0 -41 -15.5 -76t-41 -60.5t-61.5 -41t-75 -15.5h-1150q-80 0 -136.5 56.5t-56.5 136.5zM193 1040q2 -35 15 -76.5t30 -78.5q16 -37 33.5 -72t33.5 -63q74 -129 176.5 -241 t225.5 -190q31 -18 67.5 -36.5t75.5 -32.5q41 -16 83 -31.5t81 -21.5q63 -10 112.5 2t90.5 34q27 12 57.5 33.5t44.5 52.5q4 8 9 27t9 38t6.5 37.5t-2.5 29.5q-4 12 -24.5 22t-36.5 21q-43 25 -71.5 41t-67.5 38q-16 10 -36 23.5t-38 13.5q-23 0 -46.5 -27.5t-37.5 -43.5 q-12 -14 -36.5 -43t-47.5 -31q-14 -2 -32.5 10t-37.5 23q-106 59 -182 136t-135 177q-10 16 -21.5 37.5t-7.5 38.5q2 18 24.5 33.5t35.5 29.5q14 16 31.5 37t19.5 43q4 16 -5 38t-16 42q-16 43 -28.5 76t-26.5 76q-6 16 -12 40.5t-21 30.5q-8 4 -26.5 7t-39 4.5t-37.5 0 t-24 -1.5h-8q-33 -16 -62.5 -45.5t-51 -69.5t-34 -88t-9.5 -100z" />
<glyph unicode="&#xf099;" d="M0 399q0 20 13.5 33.5t33.5 13.5q14 0 31 -12q123 -109 287 -108q59 0 117.5 15t107.5 48q-29 16 -47.5 42t-18.5 58q0 23 8 39q-18 6 -44.5 20.5t-51 34t-41 43t-16.5 46.5q0 16 10 28.5t25 22.5q-41 25 -76 74t-35 98q0 33 33 43q-35 35 -55.5 81t-20.5 95 q0 23 9.5 41.5t37.5 18.5q18 0 84 -27t142.5 -60.5t146.5 -67.5t98 -48q25 -14 47.5 -31.5t44.5 -36.5q20 51 47 106.5t60 106.5t73 96t89 74q8 6 24 6q18 0 27 -8q16 6 41.5 13.5t42.5 7.5q29 0 43 -27q31 0 56.5 -15.5t25.5 -50.5q0 -31 -27 -53q96 -43 159.5 -125 t90.5 -182q6 -2 23 -2q47 0 88 16.5t57 16.5q18 0 31.5 -14.5t13.5 -32.5q0 -23 -19.5 -48.5t-33.5 -39.5q23 4 42 -7.5t19 -38.5q0 -29 -26.5 -50t-61.5 -37.5t-72.5 -25.5t-58.5 -11q-43 -139 -133 -246t-210 -178.5t-258 -109.5t-275 -38q-219 0 -415 93.5t-325 273.5 q-8 16 -8 26z" />
<glyph unicode="&#xf09a;" horiz-adv-x="790" d="M0 862v203q0 16 11.5 28.5t27.5 12.5h125v102q0 358 366 359q123 0 232 -31q33 -10 29 -43l-27 -199q-4 -10233B68A42" />
<glyph unicode="&#xf09b;" horiz-adv-x="1847" d="M0 743q0 115 37 222.5t113 193.5l-3 4l3 2q-16 39 -21.5 81t-5.5 85q0 25 2 56.5t8 65.5t15.5 63.5t23.5 50.5h8q61 0 110.5 -12.5t94.5 -35t87 -52t91 -60.5q86 25 178.5 33t182.5 8t182 -8t180 -33q47 31 90 60.5t87 52t93.5 35t110.5 12.5h10q12 -20 21.5 -50 t15.5 -64t9 -65.5t3 -56.5q0 -43 -6 -85t-20 -81v-2l-2 -4q76 -86 112.5 -193.5t36.5 -222.5q0 -233 -66.5 -383.5t-188.5 -236.5t-292 -120t-376 -34q-207 0 -378 34t-292 120t-187.5 236.5t-66.5 383.5zM250 483q0 -145 64.5 -224t165 -116t219 -43t227.5 -6q74 0 152.5 2 t153.5 12.5t142.5 34t117.5 67.5t80 111.5t30 165.5q0 84 -27 147.5t-75 106.5t-114.5 64.5t-146.5 21.5q-78 0 -156.5 -7t-156.5 -7t-157 7t-157 7q-162 0 -262 -87t-100 -257zM494 524q0 66 26.5 113t65.5 47t66.5 -47t27.5 -113t-27.5 -112.5t-66.5 -46.5t-65.5 46.5 t-26.5 112.5zM795 258q-6 16 12 25q16 6 24 -13q27 -76 93 -75q31 0 56.5 20.5t35.5 54.5q8 20 26 13q16 -6 13 -25q-16 -47 -51 -75.5t-80 -28.5q-43 0 -78 28.5t-51 75.5zM864 369q0 -12 17.5 -21.5t42.5 -9.5t42 9.5t17 21.5t-17.5 21t-41.5 9q-25 0 -42.5 -9t-17.5 -21z M1167 524q0 -66 28 -112.5t67 -46.5t65.5 46.5t26.5 112.5t-27 113t-65 47q-39 0 -67 -47t-28 -113z" />
<glyph unicode="&#xf09c;" horiz-adv-x="1880" d="M0 117v626q0 49 35 84t82 35h665v156q0 113 43 213t118 175t175 118t213 43t213.5 -43t175 -118t117.5 -170779807AA4" />
<glyph unicode="&#xf09d;" d="M0 154v1228q0 63 45 108.5t109 45.5h1536q63 0 108 -45t45 -109v-1228q0 -63 -45 -108.5t-108 -45.5h-1536q-63 0 -108.5 45t-45.5 109zM154 154h1536v575h-1536v-575zM154 1114h1536v268h-1536v-268zM260 250v115h307v-115h-307zM676 250v115h446v-115h-446z" />
<glyph unicode="&#xf09e;" horiz-adv-x="1566" d="M0 236q0 49 18.5 91t50 74.5t75 51t92.5 18.5t91 -18.5t74.5 -51t51 -74.5t18.5 -91t-18.5 -92.5t-51 -75t034895BAB0" />
<glyph unicode="&#xf0a0;" d="M0 193v382q0 23 6 45.5t12 45.5l238 727q20 63 75.5 103t121.5 40h938q66 0 121 -40t75 -103l238 -727q6 -06A9053AB7" />
<glyph unicode="&#xf0a1;" d="M0 754v229q0 63 45 108.5t109 45.5h499q115 0 245 33.5t255 90t235.5 128t186.5 147.5q63 0 108.5 -45t45.5 -109v-368q49 -12 81.5 -52.5t32.5 -93.5t-32.5 -93t-81.5 -52v-369q0 -63 -45.5 -108t-108.5 -45q-68 68 -164 132t-206.5 117.5t-227.5 91.5t-227 50 q-43 -12 -70 -40t-37 -62.5t-2 -70.5t37 -65q-25 -41 -23 -75.5t20.5 -66.5t49.5 -61.5t66 -58.5q-20 -43 -69.5 -65.5t-106 -25.5t-110.5 10.5t-85 43.5q-18 61 -40 125t-36 130.5t-14 138t24 151.5h-200q-63 0 -108.5 45t-45.5 109zM807 741q102 -16 206.5 -49t205 -78 t191.5 -99t165 -112v930q-76 -59 -166 -113.5t-190.5 -98.5t-205 -77.5t-206.5 -48.5v-254z" />
<glyph unicode="&#xf0a2;" horiz-adv-x="1759" d="M0 317q104 78 172 172.5t109 201t60 224t28 240.5q6 84 56 159t126 131t163 89t167 33q74 0 163 -33t165.5 -88t129 -129t52.5 -158q6 -121 27.5 -239.5t63.5 -227t109.5 -204t167.5 -171.5q-4 -70 -56 -114.5t-120 -44.5h-469q-18 -82 -82.5 -135.5t-150.5 -53.5 t-151.5 53.5t-84.5 135.5h-469q-68 0 -120 45t-56 114zM238 317h1284q-78 86 -129.5 183.5t-84 202t-50 214t-25.5 222.5q-4 55 -41 104t-89 86t-111.5 57.5t-110.5 20.5q-47 0 -107.5 -21.5t-114 -56.5t-91.5 -83t-40 -99q-6 -111 -23.5 -222.5t-51 -218t-87 -205 t-128.5 -184.5zM713 209q0 -70 49 -119t119 -49q18 0 18 20t-18 21q-53 0 -91 37t-38 90q0 20 -19 20q-20 0 -20 -20z" />
<glyph unicode="&#xf0a3;" horiz-adv-x="1597" d="M0 573q0 33 23 56l143 139l-143 139q-23 23 -23 56q0 25 16.5 45t40.5 26l195 49q-6 18 -15.5 48t-18.5 6107E4EFEA48" />
<glyph unicode="&#xf0a4;" horiz-adv-x="1916" d="M0 193v643q0 49 35 83.5t84 34.5h348q27 14 42 30.5t34 39.5q16 20 33.5 38.5t33.5 37.5q35 35 77 68.5t65 74.5q25 43 29.5 99.5t17 106.5t44 84t109.5 34q61 0 111.5 -25.5t85.5 -68.5t54.5 -98.5t19.5 -112.5q0 -53 -15.5 -104.5t-38.5 -98.5h134l376 -2 q49 0 93.5 -17.5t76 -49.5t50 -75t18.5 -94q0 -49 -18.5 -92t-50 -74.5t-75.5 -49t-94 -17.5h-200q-10 -59 -39 -107q10 -59 -7.5 -117.5t-56.5 -103.5q0 -76 -28.5 -131t-75.5 -90t-109.5 -52.5t-132.5 -17.5q-78 0 -148.5 16.5t-136 36t-128 36t-123.5 16.5h-375 q-49 0 -84 34.5t-35 84.5zM233 276q0 -35 22.5 -57t57.5 -22q33 0 56.5 22.5t23.5 56.5q0 33 -23.5 56.5t-56.5 23.5q-35 0 -57.5 -23.5t-22.5 -56.5zM489 193q70 0 136.5 -16.5t133 -35t133 -35t138.5 -16.5q43 0 84 8t72 27.5t50 52.5t19 82q0 14 -1 26.5t-3 24.5 q35 16 53.5 53t18.5 74q0 39 -20 68q59 49 59 123q0 23 -12.5 43.5t-26.5 34.5q90 0 178 1t178 1q51 0 84 30.5t33 81.5q0 53 -32.5 85t-84.5 32q-172 0 -340 1t-338 1q0 41 16.5 78t35 74.5t34 78.5t15.5 91q0 33 -10.5 65.5t-29 59t-46 44t-64.5 17.5h-11t-11 -2 q-8 -4 -9 -8t-3 -13q-12 -59 -22.5 -123.5t-39.5 -117.5q-29 -51 -73 -88t-85 -78q-29 -31 -49 -56.5t-41.5 -48t-48.5 -42t-65 -35.5h-5v-643z" />
<glyph unicode="&#xf0a5;" horiz-adv-x="1916" d="M0 821q0 51 18.5 94t50 75t75.5 49.5t94 17.5l376 2h134q-23 47 -38.5 98t-15.5 105q0 57 19.5 112.5t54.50EBAA0BAF7" />
<glyph unicode="&#xf0a6;" horiz-adv-x="1597" d="M0 602q0 61 25.5 111.5t68.5 85.5t98.5 54t112.5 19q53 0 104.5 -15t98.5 -38v133l2 377q0 49 17.5 93t49 01979A2A3C" />
<glyph unicode="&#xf0a7;" horiz-adv-x="1597" d="M0 584q0 78 34 109.5t84 44t106.5 17.5t99.5 29q41 23 74.5 65t68.5 77q18 16 36.5 33.5t39.5 33.5q23 18 39 33.5t30 42.5v348q0 49 35 84t84 35h643q49 0 84 -35t35 -84v-375q0 -61 16.5 -123.5t36 -128t35.5 -136t16 -148.5q0 -70 -17 -132.5t-52 -109.5t-90.5 -75.5 t-130.5 -28.5q-45 -39 -103.5 -56.5t-118.5 -7.5q-47 -29 -106 -39v-200q0 -49 -17.5 -93.5t-49 -76t-74.5 -50t-93 -18.5q-51 0 -94 18.5t-74.5 50t-49 75.5t-17.5 94l-2 376v134q-47 -23 -98.5 -38.5t-104.5 -15.5q-57 0 -112.5 19.5t-98.5 54.5t-68.5 85t-25.5 112z M120 595q1 -7 1 -11q0 -37 16.5 -64.5t43 -46t59 -29t65.5 -10.5q49 0 90 15.5t79 34t75 35t78 16.5q0 -170 1 -338t1 -340q0 -51 31.5 -84t84.5 -33q51 0 82 32.5t31 84.5q0 90 1 178t1 178q14 -14 34.5 -26.5t43.5 -12.5q74 0 123 59q29 -20 67 -20q37 0 74 18.5t53 53.5 q12 -2 24.5 -3t27.5 -1q49 0 81.5 19t52 50t28 72t8.5 84q0 70 -16.5 137.5t-35 134t-35 133t-16.5 136.5h-643v-5q-16 -41 -35.5 -66.5t-42 -47t-48 -42t-56.5 -48.5q-41 -41 -78 -85t-88 -73q-53 -29 -117.5 -39t-124.5 -23l-12 -3t-8 -9q-2 -4 -1 -11zM1210 1223 q0 -33 23.5 -56.5t56.5 -23.5q35 0 57.5 23.5t22.5 56.5q0 35 -22.5 57.5t-57.5 22.5q-33 0 -56.5 -23t-23.5 -57z" />
<glyph unicode="&#xf0a8;" horiz-adv-x="1597" d="M0 768q0 166 62.5 311.5t171 254t254 171t311.5 62.5t311 -62.5t254 -171t171 -254t62 -311.5t-62 -311.5t-171 -254t-254 -171t-311 -62.5t-311.5 62.5t-254 171t-171 254t-62.5 311.5zM240 768q0 -29 20 -49l490 -490q20 -20 48.5 -20t49.5 20l74 74q20 20 20 48 t-20 50l-246 246h612q29 0 49.5 19.5t20.5 48.5v104q0 29 -20.5 49.5t-49.5 20.5h-612l246 246q20 20 20 48.5t-20 49.5l-74 74q-20 20 -48 20t-50 -20l-490 -490q-20 -20 -20 -49z" />
<glyph unicode="&#xf0a9;" horiz-adv-x="1597" d="M0 768q0 166 62.5 311.5t171 254t254 171t311.5 62.5t311 -62.5t254 -171t171 -254t62 -311.5t-62 -311.5t-171 -254t-254 -171t-311 -62.5t-311.5 62.5t-254 171t-171 254t-62.5 311.5zM240 717q0 -29 20.5 -49.5t48.5 -20.5h613l-246 -246q-20 -20 -20.5 -48.5 t20.5 -49.5l74 -74q20 -20 47.5 -20t50.5 20l489 490q20 20 20.5 49t-20.5 49l-489 490q-20 20 -49 20t-49 -20l-74 -74q-20 -20 -20.5 -48t20.5 -50l246 -246h-613q-29 0 -49 -19.5t-20 -48.5v-104z" />
<glyph unicode="&#xf0aa;" horiz-adv-x="1597" d="M0 768q0 166 62.5 311.5t171 254t254 171t311.5 62.5t311 -62.5t254 -171t171 -254t62 -311.5t-62 -311.5t-171 -254t-254 -171t-311 -62.5t-311.5 62.5t-254 171t-171 254t-62.5 311.5zM240 768q0 -29 20 -49l74 -74q20 -20 48 -20t50 20l246 246v-612q0 -29 19.5 -49.5 t47.5 -20.5h105q29 0 49.5 20.5t20.5 49.5v612l245 -246q20 -20 49 -20t50 20l73 74q20 20 20.5 48t-20.5 50l-489 490q-20 20 -49 20t-49 -20l-490 -490q-20 -20 -20 -49z" />
<glyph unicode="&#xf0ab;" horiz-adv-x="1597" d="M0 768q0 166 62.5 311.5t171 254t254 171t311.5 62.5t311 -62.5t254 -171t171 -254t62 -311.5t-62 -311.5t-171 -254t-254 -171t-311 -62.5t-311.5 62.5t-254 171t-171 254t-62.5 311.5zM240 769q0 -28 20 -50l490 -490q20 -20 48.5 -20t49.5 20l489 490q20 20 20.5 49 t-20.5 49l-73 74q-20 20 -48 20t-51 -20l-245 -246v612q0 29 -19.5 49.5t-48.5 20.5h-104q-29 0 -49.5 -20.5t-20.5 -49.5v-612l-246 246q-20 20 -49 20t-49 -20l-74 -74q-20 -20 -20 -48z" />
<glyph unicode="&#xf0ac;" horiz-adv-x="1597" d="M0 768q0 162 63.5 307.5t173 255t254 173t308.5 63.5q162 0 307 -63.5t254.5 -173t173 -255t63.5 -307.5q008411B9AE8" />
<glyph unicode="&#xf0ad;" horiz-adv-x="1593" d="M8 242q0 33 12.5 62.5t34.5 51.5l609 609q-16 66 -17 122q0 98 38 186.5t102.5 153t151.5 102.5t185 38q94 0 181.5 -36t154.5 -101l-442 -162l-43 -236l184 -153l443 159q-10 -92 -50.5 -171t-104 -137t-145 -91t-174.5 -33q-61 0 -127 17l-606 -607q-47 -47 -112 -47 q-68 0 -115 47q-23 23 -50.5 47.5t-52 52t-41 58.5t-16.5 68zM203 242q0 -33 22.5 -56.5t57.5 -23.5q33 0 56 23.5t23 56.5q0 35 -23.5 57.5t-55.5 22.5q-35 0 -57.5 -23t-22.5 -57z" />
<glyph unicode="&#xf0ae;" d="M0 76v217q0 31 22.5 53.5t53.5 22.5h1689q33 0 55.5 -22.5t22.5 -53.5v-217q0 -31 -22.5 -53.5t-55.5 -22.5h-1689q-31 0 -53.5 22.5t-22.5 53.5zM0 662v215q0 31 22.5 53t53.5 22h1689q33 0 55.5 -22.5t22.5 -52.5v-215q0 -33 -22.5 -55.5t-55.5 -22.5h-1689 q-31 0 -53.5 22.5t-22.5 55.5zM0 1243v217q0 31 22.5 53.5t53.5 22.5h1689q33 0 55.5 -22.5t22.5 -53.5v-217q0 -31 -22.5 -53.5t-55.5 -22.5h-1689q-31 0 -53.5 22.5t-22.5 53.5zM752 692h999v154h-999v-154zM1059 109h692v153h-692v-153zM1366 1274h385v153h-385v-153z " />
<glyph unicode="&#xf0b0;" horiz-adv-x="1566" d="M0 1458q0 33 22.5 55.5t55.5 22.5h1411q33 0 55.5 -22.5t22.5 -55.5t-23 -55l-565 -565v-791q0 -33 -22.5 -55.5t-55.5 -22.5t-55 23l-236 235q-23 23 -22 56v555l-565 565q-23 23 -23 55z" />
<glyph unicode="&#xf0b1;" d="M0 115v512h713q-2 -6 -2 -19v-153q0 -55 38.5 -95.5t96.5 -40.5h153q55 0 94.5 40t39.5 96v153q0 12 -3 19h713v-512q0 -47 -33.5 -81t-80.5 -34h-1614q-47 0 -81 34t-34 81zM0 743v371q0 47 34 81t81 34h424v231q0 31 21.5 53.5t53.5 22.5h615q33 0 55.5 -22.5 t22.5 -53.5v-231h422q47 0 80.5 -34t33.5 -81v-371h-1843zM692 1229h461v153h-461v-153zM825 455v153q0 18 21 19h153q18 0 19 -19v-153q0 -18 -19 -19h-153q-20 0 -21 19z" />
<glyph unicode="&#xf0b2;" horiz-adv-x="1536" d="M0 80v477q0 51 24.5 61.5t59.5 -24.5l162 -162l340 338l-338 338l-164 -164q-35 -35 -59.5 -25.5t-24.5 60.5v477q0 31 23 57q27 23 57 23h477q51 0 61.5 -24.5t-24.5 -59.5l-160 -158l338 -338l332 334l-162 162q-35 35 -24.5 59.5t61.5 24.5h477q33 0 55 -23 q25 -25 25 -57v-477q0 -51 -24.5 -61.5t-59.5 24.5l-162 162l-334 -334l338 -336l158 160q35 35 59.5 24.5t24.5 -61.5v-477q0 -35 -25 -55q-23 -25 -55 -25h-477q-51 0 -61.5 24.5t24.5 59.5l166 166l-336 336l-340 -340l162 -162q35 -35 24.5 -59.5t-61.5 -24.5h-477 q-31 0 -55 25q-25 20 -25 55z" />
<glyph unicode="&#xf0c0;" horiz-adv-x="1880" d="M0 852v152q0 18 1 47.5t10 56.5t29.5 46.5t57.5 19.5q-45 29 -71.5 75.5t-26.5 104.5q0 43 16.5 82t46 68.016E9FAAD4" />
<glyph unicode="&#xf0c1;" horiz-adv-x="1597" d="M0 1137q0 88 34 166.5t92 137t136 92.5t168 34q86 0 166 -33t139 -92q8 -8 21.5 -20.5t26 -25t21.5 -25.5t0D8364EA7D" />
<glyph unicode="&#xf0c2;" horiz-adv-x="1880" d="M0 391q0 70 23.5 132.5t64.5 113.5t96.5 86t120.5 51q-33 41 -51 90t-18 105q0 66 24.5 123t66.5 99t99 6605A7A2DACF" />
<glyph unicode="&#xf0c3;" horiz-adv-x="1536" d="M16 72q-39 72 7 141l516 803v366h-78q-33 0 -54.5 22.5t-21.5 55.5q0 31 21.5 53.5t54.5 22.5h614q33 0 55.5 -22.5t22.5 -53.5q0 -33 -22.5 -55.5t-55.5 -22.5h-76v-368l514 -801q45 -70 7 -141q-18 -35 -51 -53.5t-70 -18.5h-1262q-37 0 -69.5 18.5t-51.5 53.5z M377 479h782l-313 490v413h-154v-411z" />
<glyph unicode="&#xf0c4;" horiz-adv-x="1916" d="M0 180q0 86 44 168t113.5 146.5t154.5 103.5t169 39h13q18 25 57 60.5t63 58.5v12v12q-12 12 -28.5 27.5t-35 32t-33.5 32t-23 27.5q-84 -6 -172.5 33t-160 105.5t-116.5 150.5t-45 168q0 98 62.5 154.5t160.5 56.5q82 0 168 -39t155.5 -103.5t114 -146.5t44.5 -168 q0 -10 -1.5 -21.5t-3.5 -21.5l86 -76l34 17q34 18 90.5 46.5t129 65.5t148.5 76t150.5 77t135 69.5t102.5 52t52 26.5q16 8 37 9q14 0 39 -4.5t52.5 -9.5t53 -11t41.5 -8q29 -4 47.5 -26.5t18.5 -51.5q0 -43 -35 -66l-700 -485l700 -485q35 -23 35 -66q0 -29 -18.5 -51.5 t-47.5 -26.5q-16 -4 -41.5 -9t-53 -10t-52.5 -9.5t-39 -4.5q-10 0 -18.5 2.5t-18.5 6.5l-842 430l-86 -76q2 -10 3.5 -21.5t1.5 -21.5q0 -86 -44.5 -168t-114 -146.5t-155.5 -103.5t-168 -39q-98 0 -160.5 56.5t-62.5 154.5zM197 1358q0 -23 11 -49.5t27.5 -51t35 -45 t34.5 -34.5q35 -29 82 -54.5t94 -25.5q10 0 27 4v6q0 23 -11.5 48.5t-27.5 50t-34.5 46t-35.5 35.5q-35 29 -82 54.5t-94 25.5q-14 0 -26 -4v-6zM199 180q0 -6 2 -10q6 0 11 -1t11 -1q41 0 90 24.5t92.5 61.5t72 83t28.5 89q0 4 -1 5t-1 5q-8 2 -23 2q-41 0 -90 -24.5 t-92 -61.5t-71.5 -83t-28.5 -89zM586 616q53 -25 82 -69l108 96l45 -27l1016 703l-172 31l-975 -498l6 -127zM586 920l35 -35q12 29 36.5 41t53.5 26l-43 37q-29 -45 -82 -69zM741 768q0 35 23.5 57.5t58.5 22.5q33 0 55.5 -22.5t22.5 -57.5q0 -33 -22.5 -56.5t-57.5 -23.5 q-33 0 -56.5 23.5t-23.5 56.5zM903 575l762 -389l172 31l-727 502z" />
<glyph unicode="&#xf0c5;" horiz-adv-x="1597" d="M0 385v707q0 33 16.5 70.5t38.5 60.5l258 258q23 23 61 39t70 16h463q31 0 53.5 -22.5t22.5 -53.5v-250q16 8 35.5 13.5t40.5 5.5h463q31 0 53 -22.5t22 -53.5v-1075q0 -33 -22.5 -55.5t-52.5 -22.5h-830q-33 0 -55.5 22.5t-22.5 55.5v229h-536q-33 0 -55.5 22.5 t-22.5 55.5zM154 461h460v293q0 45 10.5 87t45.5 74l159 162v305h-278v-321q0 -31 -22.5 -53.5t-53.5 -22.5h-321v-524zM186 1139h211v211zM768 154h676v921h-279v-321q0 -31 -22.5 -53.5t-52.5 -22.5h-322v-524zM801 831h211v211z" />
<glyph unicode="&#xf0c6;" horiz-adv-x="1470" d="M0 1128q0 90 35 170t94 139.5t139 94.5t170 35q88 0 169 -34t143 -95l655 -656q12 -12 12 -28q0 -10 -11 -26.5t-26.5 -32t-32 -27t-26.5 -11.5q-16 0 -29 13l-655 655q-41 41 -92 61.5t-107 20.5q-57 0 -108 -21.5t-89 -59.5t-59.5 -89t-21.5 -109q0 -55 20.5 -106 t61.5 -92l745 -746q55 -55 133 -55q39 0 74 15.5t60.5 41t41 60.5t15.5 73q0 78 -56 134l-563 563q-29 29 -69 28q-41 0 -71 -29.5t-30 -70.5t29 -70l475 -475q12 -12 12 -28q0 -10 -11 -26.5t-26.5 -32t-32 -27t-26.5 -11.5q-16 0 -29 13l-475 473q-35 37 -55.5 85 t-20.5 99q0 53 20.5 100.5t55.5 83t83.5 56t101.5 20.5q51 0 99 -20.5t85 -55.5l561 -563q102 -102 102 -246q0 -74 -27.5 -137t-74.5 -110t-110.5 -75t-137.5 -28q-143 0 -246 103l-745 745q-61 61 -95 142t-34 169z" />
<glyph unicode="&#xf0c7;" horiz-adv-x="1536" d="M0 154v1228q0 63 45 108.5t109 45.5h1075q63 0 108 -45l154 -154q45 -45 45 -108v-1075q0 -63 -45 -108.5t-109 -45.5h-1228q-63 0 -108.5 45t-45.5 109zM154 846h1075v536h-1075v-536zM846 922v385h190v-385h-190z" />
<glyph unicode="&#xf0c8;" horiz-adv-x="1536" d="M0 193v1150q0 39 15.5 75t41 61.5t60.5 41t76 15.5h1150q80 0 136.5 -56.5t56.5 -136.5v-1150q0 -41 -15.509119E1A06" />
<glyph unicode="&#xf0c9;" d="M0 78v215q0 31 22.5 53.5t55.5 22.5h1689q31 0 53.5 -22.5t22.5 -53.5v-215q0 -33 -22.5 -55.5t-53.5 -22.068FA37AA2" />
<glyph unicode="&#xf0ca;" d="M0 211q0 39 15.5 75t41 61.5t60.5 40.5t76 15q39 0 73.5 -15t61 -40.5t42 -61.5t15.5 -75q0 -41 -15.5 -7604CAD1CA3F" />
<glyph unicode="&#xf0cb;" d="M0 594q0 55 30.5 90t68.5 61.5t69 50t31 56.5q0 29 -17.5 44t-46.5 15q-25 0 -44 -15t-34 -36l-53 37q23 30A56287A1F " />
<glyph unicode="&#xf0cc;" horiz-adv-x="1536" d="M0 692v152h1536v-152h-1536zM268 1114q0 117 44 202t118 141t170 83t203 27q88 0 176 -20.5t172 -49.5q20 -72 27.5 -156t7.5 -157q0 -10 -1 -22.5t-3 -24.5l-13 -2q-23 2 -50 2t-50 6q-18 59 -44 114.5t-62.5 98.5t-88 68.5t-122.5 25.5q-49 0 -94.5 -13.5t-80 -40 t-56 -66.5t-21.5 -93q0 -59 28.5 -102t75.5 -75t105.5 -54.5t118 -42t113.5 -39t93 -41.5h-696q-33 53 -51.5 110.5t-18.5 120.5zM285 310v63v45l110 2q31 -72 64 -134.5t76 -108.5t104 -71.5t152 -25.5q55 0 110 16.5t100.5 48t74 78.5t28.5 109q0 76 -49 128t-119 88 t-146.5 59.5t-132.5 45.5h617q8 -16 15 -38.5t10.5 -48t5.5 -50t2 -43.5q0 -131 -47.5 -226t-127 -156.5t-186 -91.5t-225.5 -30q-53 0 -93 4t-78 12.5t-78 20.5t-93 29q-12 4 -38 12t-36 16q-8 6 -12 50.5t-6 96.5t-2 100z" />
<glyph unicode="&#xf0cd;" horiz-adv-x="1536" d="M0 0v154h1536v-154h-1536zM0 1532q10 2 19.5 2h19.5q72 0 140.5 -5t137.5 -5q100 0 200.5 2t199.5 6q-4 -16 -1 -36.5t3 -37.5v-8q-66 -10 -108 -7t-65.5 -5t-32.5 -39t-9 -109q0 -137 4 -272t10 -273q8 -147 88 -237t238 -90q125 0 207 29.5t131 88t69.5 146.5t20.5 203 q0 20 -2 65t-5 102.5t-8.5 119t-11.5 113.5t-13 89t-15 45q-33 33 -78 33q-6 0 -23.5 -1t-36 -1t-34 1t-21.5 3l2 82q82 4 163 -3t165 -7q39 0 77.5 5t79.5 5q4 0 9.5 -1t9.5 -1q2 -12 4 -24.5t2 -24.5t-4 -29q-23 -6 -52.5 -8t-58 -7t-48 -16.5t-19.5 -38.5q0 -14 1 -27 t3 -28q2 -6 5 -38.5t5 -79t4 -101.5t4 -103t3 -85t1 -50q0 -37 -2 -80.5t-8 -89t-17.5 -87.5t-29.5 -74q-41 -68 -104.5 -114t-137 -72.5t-153.5 -38t-154 -11.5q-72 0 -144.5 9.5t-140.5 35.5q-96 35 -151 88.5t-84 121t-36 148.5t-7 173v321v42t-1 62.5t-5 60.5t-10 38 q-12 16 -37 23.5t-53.5 10.5t-56.5 3t-44 4z" />
<glyph unicode="&#xf0ce;" d="M0 115v1306q0 47 34 81t81 34h1614q47 0 80.5 -34t33.5 -81v-1306q0 -47 -33.5 -81t-80.5 -34h-1614q-47 0 -81 34t-34 81zM154 154h460v335h-460v-335zM154 565h460v332h-460v-332zM154 975h460v332h-460v-332zM692 154h461v335h-461v-335zM692 565h461v332h-461v-332z M692 975h461v332h-461v-332zM1229 154h461v335h-461v-335zM1229 565h461v332h-461v-332zM1229 975h461v332h-461v-332z" />
<glyph unicode="&#xf0d0;" d="M0 197q0 39 29 61l1579 1247q20 17 47 17q35 0 59 -29q10 -12 29.5 -33.5t38 -44t32 -47.5t13.5 -43q0 -39 -29 -61l-1579 -1248q-20 -16 -47 -16q-37 0 -59 29q-10 12 -30 33.5t-38 44t-31.5 47t-13.5 43.5zM256 922l117 36l37 117l34 -117l119 -36l-119 -37l-34 -117 l-37 117zM373 1229l235 71l72 236l72 -236l235 -71l-235 -72l-72 -235l-72 235zM942 1382l117 37l37 117l37 -117l116 -37l-116 -36l-37 -117l-37 117zM1286 1153l94 -121l369 291l-94 121zM1536 885l117 35l37 118l36 -118l117 -35l-117 -37l-36 -117l-37 117z" />
<glyph unicode="&#xf0d1;" d="M0 358v404q0 25 6 51.5t17.5 53t27 51t31.5 40.5l223 222q16 16 41 31.5t51.5 26.5t53 17.5t51.5 6.5h80v104CB0E9A4F" />
<glyph unicode="&#xf0d2;" horiz-adv-x="1597" d="M0 768q0 166 62.5 311.5t171 254t254 171t311.5 62.5t311 -62.5t254 -171t171 -254t62 -311.5t-62 -311.5t0730602A3B" />
<glyph unicode="&#xf0d3;" horiz-adv-x="1536" d="M0 193v1150q0 39 15.5 75t41 61.5t60.5 41t76 15.5h1150q80 0 136.5 -56.5t56.5 -136.5v-1150q0 -41 -15.509CA375AC3" />
<glyph unicode="&#xf0d4;" horiz-adv-x="1536" d="M0 342v438q55 -68 120.5 -96.5t153.5 -28.5h36t34 4q-8 -23 -14 -42t-6 -42q0 -41 18 -77.5t43 -67.5q-104 -4 -198.5 -22.5t-186.5 -65.5zM0 1214v129q0 39 15.5 75t41 61.5t60.5 41t76 15.5h1150q80 0 136.5 -56.5t56.5 -136.5v-1150q0 -41 -15.5 -76t-41 -60.5 t-61.5 -41t-75 -15.5h-583q23 39 36 81t13 89q0 70 -21.5 121t-54.5 90t-70.5 69.5t-70.5 57.5t-54.5 53.5t-21.5 59.5q0 49 34 81.5t76 72.5t75.5 99.5t33.5 163.5q0 78 -39 157t-106 122h131l133 76h-428q-129 0 -237.5 -36t-188.5 -143zM2 170q14 57 55 96t96.5 61.5 t115 33t110.5 10.5h31.5t31.5 -2q37 -27 78 -54.5t75 -61.5t55.5 -75t21.5 -92q0 -47 -19 -86h-460q-72 0 -126.5 49t-64.5 121zM102 1094q0 43 11.5 85t35 73.5t59.5 51t85 19.5q68 0 118 -41t81.5 -100.5t47 -128t15.5 -123.5q0 -45 -9 -84t-30.5 -68.5t-56.5 -47 t-84 -17.5q-66 0 -116 39t-85 96t-53.5 123.5t-18.5 122.5zM854 1051h223v-224h109v224h223v108h-223v225h-109v-225h-223v-108z" />
<glyph unicode="&#xf0d5;" horiz-adv-x="1536" d="M0 262q0 100 56.5 166t139.5 105.5t179 56t174 18.5q-23 29 -41.5 64t-18.5 76q0 23 6.5 41t14.5 40q-16 -4 -33.5 -4h-34.5q-68 0 -130 23.5t-108 66.5t-74 101.5t-28 130.5q0 68 25 128t67 109.5t98 84t120 49.5q88 18 176 18h411l-127 -74h-127q72 -43 107 -120.5 t35 -157.5q0 -94 -33 -149.5t-73 -94.5t-72.5 -70.5t-32.5 -78.5q0 -45 44 -82t97 -82t97 -107.5t44 -161.5q0 -102 -50 -175.5t-126.5 -121t-170 -70t-181.5 -22.5q-66 0 -141.5 15.5t-140 50.5t-106.5 90t-42 137zM174 307q0 -68 35 -116t87 -78.5t114.5 -44t117.5 -13.5 q51 0 104.5 11.5t96.5 38t69.5 68.5t26.5 103q0 49 -21.5 89.5t-53 72t-70.5 59t-76 52.5q-14 2 -29.5 3t-29.5 1q-57 0 -123 -12.5t-121 -41t-91 -75.5t-36 -117zM276 1247q0 -53 17.5 -117.5t51.5 -120t82.5 -92t111.5 -36.5q96 0 134 61.5t38 147.5q0 53 -14.5 118.5 t-45 124t-78 97t-112.5 38.5q-47 0 -82 -18t-57.5 -49t-34 -71t-11.5 -83zM999 1206h215v-215h107v215h215v105h-215v217h-107v-217h-215v-105z" />
<glyph unicode="&#xf0d6;" d="M0 78v1382q0 31 22.5 53.5t55.5 22.5h1689q31 0 53.5 -22.5t22.5 -53.5v-1382q0 -33 -22.5 -55.5t-53.5 -22.5h-1689q-33 0 -55.5 22.5t-22.5 55.5zM154 461q63 0 119.5 -24.5t97.5 -65.5t65.5 -97.5t24.5 -119.5h921q0 63 25 119.5t65.5 97.5t97 65.5t120.5 24.5v614 q-63 0 -120 24.5t-97.5 65.5t-65.5 97.5t-25 119.5h-921q0 -63 -24.5 -119.5t-65.5 -97.5t-97.5 -65.5t-119.5 -24.5v-614zM539 768q0 104 29.5 195.5t81.5 159t122 106.5t150 39t149.5 -39t121.5 -106.5t83 -159t31 -195.5t-31 -195.5t-83 -159t-122 -106.5t-149 -39 q-80 0 -150 39t-122 106.5t-81.5 159t-29.5 195.5zM692 969l94 -99l39 35q8 6 11.5 13.5t7.5 11.5q4 2 8 10h2v-16q0 -8 -1 -16.5t-1 -18.5v-283h-139v-129h438v129h-141v529h-140z" />
<glyph unicode="&#xf0d7;" horiz-adv-x="1228" d="M6 967q20 47 72 47h1075q50 0 70 -47t-17 -84l-536 -537q-27 -23 -56 -22q-29 0 -55 22l-536 537q-37 37 -17 84z" />
<glyph unicode="&#xf0d8;" horiz-adv-x="1228" d="M6 371q-20 47 17 84l536 536q23 23 55 23q31 0 54 -23l538 -536q37 -37 17 -84t-70 -47h-1077q-50 0 -70 47z" />
<glyph unicode="&#xf0d9;" horiz-adv-x="692" d="M0 768q0 33 23 55l538 537q16 16 38 21t44 -5q23 -8 36 -27.5t13 -41.5v-1076q0 -25 -13 -43t-36 -28t-44 -5t-38 21l-538 539q-23 23 -23 53z" />
<glyph unicode="&#xf0da;" horiz-adv-x="692" d="M0 231v1076q0 49 47 69t84 -16l539 -537q23 -23 22 -55q0 -31 -22 -53l-539 -539q-37 -37 -84 -16q-47 20 -47 71z" />
<glyph unicode="&#xf0db;" d="M0 115v1306q0 47 34 81t81 34h1614q47 0 80.5 -34t33.5 -81v-1306q0 -47 -33.5 -81t-80.5 -34h-1614q-47 0 -81 34t-34 81zM154 154h692v1153h-692v-1153zM999 154h691v1153h-691v-1153z" />
<glyph unicode="&#xf0dc;" horiz-adv-x="1228" d="M0 584q0 31 22.5 54.5t53.5 23.5h1075q33 0 55.5 -23t22.5 -55q0 -33 -23 -56l-536 -536q-23 -23 -56 -23t0150D20A13" />
<glyph unicode="&#xf0dd;" horiz-adv-x="1228" d="M0 584q0 31 22.5 54.5t53.5 23.5h1077q31 0 53.5 -23t22.5 -55q0 -33 -23 -56l-536 -536q-23 -23 -56 -23q-35 0 -53 23l-538 536q-23 23 -23 56z" />
<glyph unicode="&#xf0de;" horiz-adv-x="1228" d="M0 952q0 33 23 56l536 536q23 23 55 23q33 0 56 -23l536 -536q23 -23 23 -56q0 -31 -22.5 -54.5t-53.5 -23.5h-1077q-31 0 -53.5 23t-22.5 55z" />
<glyph unicode="&#xf0e0;" d="M0 115v905q10 -10 20.5 -17.5t20.5 -15.5q129 -96 256 -191.5t252 -195.5q39 -31 82 -62.5t89 -57t96.5 -40BB2746A85" />
<glyph unicode="&#xf0e1;" horiz-adv-x="1576" d="M0 1376q0 39 15.5 74t41 60.5t60 41t73.5 15.5t74 -15.5t61.5 -41t41 -60.5t14.5 -74t-14.5 -73.5t-41 -60097709FADF" />
<glyph unicode="&#xf0e2;" horiz-adv-x="1591" d="M0 662q-4 39 35 45l158 20q12 2 30 -8q12 -8 15 -27q14 -102 63 -191t123 -153.5t169 -101.5t200 -37q115 0 217 44t178 120t120 177t44 218t-44 218t-120 177t-178.5 120t-216.5 44q-94 0 -181.5 -30.5t-158.5 -88.5l159 -159q35 -35 24 -58.5t-58 -23.5h-463 q-16 0 -29.5 6t-24.5 16q-25 25 -24 55v463q0 47 24.5 57.5t59.5 -24.5l162 -162q109 92 238.5 140.5t271.5 48.5q166 0 311 -62.5t253.5 -171t171 -254t62.5 -311.5t-62.5 -311.5t-171 -254t-254 -171t-310.5 -62.5q-150 0 -285 52.5t-241.5 145.5t-176.5 220t-90 275z" />
<glyph unicode="&#xf0e3;" horiz-adv-x="1916" d="M0 651q0 49 37 91t88 42q35 0 68 -22q-20 14 -21 37q0 8 8 24l334 502q14 20 37 21q16 0 24 -9q-25 18 -40 43t-15 56q0 49 38 90t87 41q33 0 62 -19l514 -342q23 -16 36 -40.5t13 -53.5q0 -25 -10.5 -48.5t-26.5 -41.5t-40 -29.5t-48 -11.5q-33 0 -68 23q20 -14 21 -37 q0 -14 -8 -25l-105 -158l227 -151q14 4 28 6t28 2q53 0 94 -29l475 -315q37 -27 58.5 -65.5t21.5 -84.5q0 -74 -52.5 -126t-125.5 -52q-55 0 -99 31l-475 315q-70 47 -75 131l-228 152l-106 -158q-14 -20 -37 -20q-14 0 -25 8q55 -39 56 -100q0 -25 -10.5 -47.5t-28 -41 t-40 -29.5t-46.5 -11q-35 0 -62 18l-514 342q-49 33 -49 92z" />
<glyph unicode="&#xf0e4;" horiz-adv-x="1880" d="M0 627q0 195 73.5 365.5t201.5 298.5t299 202t366 74t366 -74t299 -202t201.5 -299t73.5 -365q0 -78 -14.50AD9AE8AB2" />
<glyph unicode="&#xf0e5;" horiz-adv-x="1916" d="M0 866q0 123 49 225.5t130 183.5t184.5 139.5t209.5 92.5q94 31 190.5 45.5t194.5 14.5t194.5 -14.5t190.50C92560A3A" />
<glyph unicode="&#xf0e6;" horiz-adv-x="1916" d="M0 997q0 98 40 182.5t106.5 151t150.5 113.5t170 76q76 25 154.5 36t156.5 11q80 0 159 -11.5t155 -35.5q86 -29 170 -76t149.5 -113.5t105 -150.5t39.5 -183q0 -98 -39.5 -182t-105 -149.5t-149.5 -113.5t-170 -77q-154 -47 -314 -47q-37 0 -72.5 3t-72.5 7 q-150 -115 -336 -155q-20 -4 -43 -9.5t-45 -5.5q-12 0 -21.5 9.5t-9.5 23.5q0 10 7.5 17.5l13.5 13.5q51 51 72.5 96t35.5 117q-63 35 -118.5 82t-97.5 104t-66.5 124t-24.5 142zM160 997q0 -72 30.5 -127t77.5 -99t104.5 -78t112.5 -64l-20 -111q33 18 63.5 42t59.5 46 q47 -6 95 -12t95 -6q135 0 264 41q61 18 124 52t114 81t84 105.5t33 129.5q0 72 -33 131.5t-84 105.5t-113.5 80t-124.5 52q-63 23 -129.5 32t-134.5 9q-66 0 -132 -9t-132 -32q-59 -18 -122.5 -52t-115 -80t-84 -105.5t-32.5 -131.5zM649 258l27 16q51 -6 102 -6 q197 0 381 62q111 37 211 99.5t177 147.5t123 190t46 230q0 41 -6 84q90 -72 148.5 -169t58.5 -214q0 -76 -24.5 -142.5t-66.5 -123.5t-97.5 -104t-118.5 -82q14 -72 35.5 -117t72.5 -96q6 -6 13.5 -14.5t7.5 -18.5q0 -16 -10.5 -23.5t-24.5 -7.5q-20 0 -43 5.5t-41 9.5 q-186 41 -336 155q-37 -4 -72.5 -7t-72.5 -3q-129 0 -254 32t-236 97z" />
<glyph unicode="&#xf0e7;" horiz-adv-x="933" d="M0 557q0 8 2 10l209 932q4 16 16.5 26.5t28.5 10.5h344q18 0 31.5 -13.5t13.5 -33.5q0 -6 -1 -10t-3 -11l-0940065A02" />
<glyph unicode="&#xf0e8;" d="M0 78v383q0 33 22.5 55.5t55.5 22.5h133v153q0 55 40 94t95 39h518v174h-135q-31 0 -53.5 21.5t-22.5 54.50A04391AB7" />
<glyph unicode="&#xf0e9;" horiz-adv-x="1884" d="M0 770q31 137 109.5 253t193.5 204t257 141t302 66v53q0 35 23.5 57.5t56.5 22.5q35 0 57.5 -22.5t22.5 -57.5v-53q160 -12 303 -65.5t258 -141.5t192.5 -204t108.5 -253q6 -29 -20 -43q-10 -6 -19 -6q-20 0 -28 12q-98 102 -218 103q-86 0 -163.5 -54.5t-130.5 -152.5 q-10 -23 -35 -23t-35 23q-82 150 -213 194v-526q0 -68 -23.5 -127t-63.5 -104.5t-93.5 -71t-114.5 -25.5t-115.5 25.5t-94.5 71t-63.5 104.5t-23.5 127q0 35 23.5 57.5t56.5 22.5q35 0 57.5 -22.5t22.5 -57.5q0 -70 40 -119t97 -49q55 0 95 49t40 119v526 q-131 -45 -213 -194q-10 -23 -35 -23t-34 23q-53 98 -130 152.5t-163 54.5q-121 0 -217 -103q-12 -12 -31 -12q-10 0 -19 6q-25 14 -20 43z" />
<glyph unicode="&#xf0ea;" horiz-adv-x="1597" d="M0 385v1075q0 31 22.5 53.5t55.5 22.5h921q31 0 53.5 -22.5t22.5 -53.5v-231h33h61q25 0 55.5 -13.5t49.5 -29.5l280 -281q18 -18 30.5 -49t12.5 -55v-62v-678q0 -27 -17 -44t-44 -17h-860q-27 0 -44.5 17.5t-17.5 43.5v246h-536q-33 0 -55.5 22.5t-22.5 55.5zM276 1321 q0 -12 9.5 -21.5t21.5 -9.5h461q12 0 21.5 9.5t9.5 21.5v61q0 12 -9.5 21.5t-21.5 9.5h-461q-12 0 -21.5 -9t-9.5 -22v-61zM737 123h738v555h-367q-27 0 -44 17.5t-17 43.5v367h-310v-983zM1169 801h306q0 2 -3.5 8t-5.5 10l-280 279q0 4 -6 4q-2 0 -2 1t-2 1t-3.5 1t-3.5 1 v-305z" />
<glyph unicode="&#xf105;" horiz-adv-x="2048" />
<glyph unicode="&#xf200;" horiz-adv-x="1536" d="M0 57v379q0 39 20.5 87t54.5 90t74.5 73t81.5 35q-35 -59 -34 -129q0 -59 16 -124t59 -106q-18 -37 -18 -70DBBD42A6A" />
<glyph unicode="&#xf201;" horiz-adv-x="1597" />
<glyph unicode="&#xf202;" horiz-adv-x="1597" />
<glyph unicode="&#xf203;" horiz-adv-x="1597" />
<glyph unicode="&#xf204;" horiz-adv-x="1597" />
</font>
</defs>
</svg>
